<svg xmlns="http://www.w3.org/2000/svg">
<defs>
<font id="SVN-HemiHead" horiz-adv-x="1303" >
  <font-face 
    font-family="SVN-Hemi Head"
    font-weight="400"
    font-stretch="normal"
    units-per-em="2048"
    panose-1="2 4 6 3 5 5 6 2 2 4"
    ascent="1638"
    descent="-410"
    x-height="1036"
    cap-height="1386"
    bbox="-244 -436.002 4553 2263"
    underline-thickness="109"
    underline-position="-143"
    unicode-range="U+0020-U+2122"
  />
<missing-glyph horiz-adv-x="4653" 
d="M788 1681v510h343v-61h-274v-157h236v-61h-236v-231h-69zM1253 1865c0 -48 10 -83.5 30 -106.5s45.333 -34.5 76 -34.5s56.334 11.5 77.001 34.5s31 58.5 31 106.5c0 46 -10.333 80.833 -31 104.5s-46.334 35.5 -77.001 35.5s-56 -11.833 -76 -35.5s-30 -58.5 -30 -104.5
zM1189 1865c0 69.333 18.666 119.667 55.999 151c30 28 68 42 114 42c24.667 0 47.5 -4.33301 68.5 -13s39.167 -21 54.5 -37s27.333 -35.667 36 -59s13 -49.666 13 -78.999c0 -34.667 -4.16699 -64.334 -12.5 -89.001s-20.166 -45 -35.499 -61s-33.5 -27.667 -54.5 -35
s-44.167 -11 -69.5 -11c-52 0 -93.333 16.167 -124 48.5s-46 79.833 -46 142.5zM1608 1681l0.00292969 369.002h58v-53c27.333 40.667 65.666 61 114.999 61c37.333 0 65.666 -9 84.999 -27s31.666 -39 36.999 -63c1.33301 -6.66699 2.5 -14.834 3.5 -24.501
s1.5 -21.834 1.5 -36.501v-226h-64v223c0 36 -6.5 61.833 -19.5 77.5s-32.167 23.5 -57.5 23.5c-13.333 0 -25.833 -2 -37.5 -6s-21.667 -10.667 -30 -20s-15 -21.833 -20 -37.5s-7.5 -35.167 -7.5 -58.5v-202h-64zM2149 1679l-25.5 -3.5
c-7.66699 -1 -14.834 -1.5 -21.5 -1.5l-44 8c-11.333 2 -20.333 6.33301 -27 13s-11.167 17 -13.5 31s-3.5 34.667 -3.5 62v214h-45v48h45v90l64 38v-128h63v-48h-63v-217c0 -12 0.5 -21.333 1.5 -28s2.83301 -11.667 5.5 -15s6.16699 -5.33301 10.5 -6s9.83301 -1 16.5 -1
h29zM2444 1851c2.66699 -37.333 16 -65.998 40 -85.998s59.333 -30 106 -30c41.333 0 72.833 7.66699 94.5 23s32.5 35.666 32.5 60.999c0 16 -4 29.667 -12 41s-22.667 21.666 -44 30.999c-6.66699 2.66699 -17.667 6 -33 10s-34.333 8.66699 -57 14

<glyph glyph-name=".notdef" horiz-adv-x="4653" 
d="M788 1681v510h343v-61h-274v-157h236v-61h-236v-231h-69zM1253 1865c0 -48 10 -83.5 30 -106.5s45.333 -34.5 76 -34.5s56.334 11.5 77.001 34.5s31 58.5 31 106.5c0 46 -10.333 80.833 -31 104.5s-46.334 35.5 -77.001 35.5s-56 -11.833 -76 -35.5s-30 -58.5 -30 -104.5
zM1189 1865c0 69.333 18.666 119.667 55.999 151c30 28 68 42 114 42c24.667 0 47.5 -4.33301 68.5 -13s39.167 -21 54.5 -37s27.333 -35.667 36 -59s13 -49.666 13 -78.999c0 -34.667 -4.16699 -64.334 -12.5 -89.001s-20.166 -45 -35.499 -61s-33.5 -27.667 -54.5 -35
s-44.167 -11 -69.5 -11c-52 0 -93.333 16.167 -124 48.5s-46 79.833 -46 142.5zM1608 1681l0.00292969 369.002h58v-53c27.333 40.667 65.666 61 114.999 61c37.333 0 65.666 -9 84.999 -27s31.666 -39 36.999 -63c1.33301 -6.66699 2.5 -14.834 3.5 -24.501
s1.5 -21.834 1.5 -36.501v-226h-64v223c0 36 -6.5 61.833 -19.5 77.5s-32.167 23.5 -57.5 23.5c-13.333 0 -25.833 -2 -37.5 -6s-21.667 -10.667 -30 -20s-15 -21.833 -20 -37.5s-7.5 -35.167 -7.5 -58.5v-202h-64zM2149 1679l-25.5 -3.5
c-7.66699 -1 -14.834 -1.5 -21.5 -1.5l-44 8c-11.333 2 -20.333 6.33301 -27 13s-11.167 17 -13.5 31s-3.5 34.667 -3.5 62v214h-45v48h45v90l64 38v-128h63v-48h-63v-217c0 -12 0.5 -21.333 1.5 -28s2.83301 -11.667 5.5 -15s6.16699 -5.33301 10.5 -6s9.83301 -1 16.5 -1
h29zM2444 1851c2.66699 -37.333 16 -65.998 40 -85.998s59.333 -30 106 -30c41.333 0 72.833 7.66699 94.5 23s32.5 35.666 32.5 60.999c0 16 -4 29.667 -12 41s-22.667 21.666 -44 30.999c-6.66699 2.66699 -17.667 6 -33 10s-34.333 8.66699 -57 14
s-42.334 10.666 -59 15.999c-16.667 5.33301 -29.667 10.666 -39 15.999c-26.667 12 -45.667 27.167 -57 45.5s-17 40.166 -17 65.499c0 19.333 4.16699 37.5 12.5 54.5s20.333 32 36 45s34.5 23.167 56.5 30.5s47 11 75 11c30 0 56.833 -3.83301 80.5 -11.5
s43.834 -18.167 60.5 -31.5c16.667 -13.333 29.667 -29.166 39 -47.499s14.666 -38.5 16 -60.5l-69 -3c-7.33301 62 -48.666 93 -124 93c-41.333 0 -70.666 -7.5 -88 -22.5c-17.333 -15 -26 -33.167 -26 -54.5c0 -18 6 -33 18 -45c7.33301 -7.33301 19 -13.666 35 -18.999
s38 -11.333 66 -18c54.667 -10.667 92 -21.334 112 -32.001c30.667 -12 52.834 -28.667 66.5 -50c13.667 -21.333 20.5 -45.333 20.5 -72c0 -22.667 -4.66699 -43.167 -14 -61.5s-22.333 -34.166 -39 -47.499s-36.667 -23.666 -60 -30.999s-49.333 -11 -78 -11
c-66.667 0 -119.167 15 -157.5 45s-57.5 73.333 -57.5 130zM3022 1681l-193 510h74l130 -372c5.33301 -14.667 10 -28.667 14 -42l12 -40c4 14.667 8.66699 28.667 14 42l16 40l140 372h69l-202 -510h-74zM3356 1681v510h72l257 -398v398h69v-510h-74l-255 396v-396h-69z
M128.002 1098c0 -46.667 9.66699 -81.333 29 -104s43 -34 71 -34s51.833 11 71.5 33s29.5 55 29.5 99c0 52 -10.167 89.833 -30.5 113.5s-44.5 35.5 -72.5 35.5s-51.333 -11.5 -70 -34.5s-28 -59.167 -28 -108.5zM327.002 917.006v45
c-24.667 -35.333 -59.334 -53 -104.001 -53c-23.333 0 -44.666 4.66699 -63.999 14s-36 22.333 -50 39s-25 36.667 -33 60s-12 49.333 -12 78c0 28 3.5 53.833 10.5 77.5s17.167 44.167 30.5 61.5s29.5 30.833 48.5 40.5s40.5 14.5 64.5 14.5
c22.667 0 42.5 -4.83301 59.5 -14.5s31.5 -22.5 43.5 -38.5v186h64v-510h-58zM725.002 917.006l-0.00292969 53.001c-15.333 -19.333 -32.666 -34.333 -51.999 -45s-41 -16 -65 -16c-37.333 0 -65.666 8.5 -84.999 25.5s-31.666 38.833 -36.999 65.5
c-1.33301 5.33301 -2.16602 12.5 -2.49902 21.5s-0.5 20.167 -0.5 33.5v231h64v-207c0 -16 0.166992 -29.333 0.5 -40s1.16602 -19.334 2.49902 -26.001c3.33301 -16 11 -28.5 23 -37.5s28 -13.5 48 -13.5c30.667 0 54.667 9.5 72 28.5s26 51.167 26 96.5v199h64v-369h-58z
M668.999 1360.01h-48l-79 99h82zM877.999 917.007l0.00292969 369.002h59v-53c26.667 40.667 64.667 61 114 61c37.333 0 65.666 -9 84.999 -27s31.666 -39 36.999 -63c1.33301 -6.66699 2.5 -14.834 3.5 -24.501s1.5 -21.834 1.5 -36.501v-226h-63v223
c0 36 -6.5 61.833 -19.5 77.5s-32.167 23.5 -57.5 23.5c-13.333 0 -25.833 -2 -37.5 -6s-21.834 -10.667 -30.501 -20s-15.5 -21.833 -20.5 -37.5s-7.5 -35.167 -7.5 -58.5v-202h-64zM1311 1106.01c0 -48 9.33301 -82.667 28 -104s42 -32 70 -32s51.833 10.667 71.5 32
s29.5 56 29.5 104c0 44 -9.83301 77.5 -29.5 100.5s-43.5 34.5 -71.5 34.5s-51.333 -11.5 -70 -34.5s-28 -56.5 -28 -100.5zM1324 883.009c1.33301 -10.667 3.50293 -19.832 6.50293 -27.499s7.83301 -13.5 14.5 -17.5c13.333 -10.667 33.666 -16 60.999 -16
c28 0 49.667 5.16699 65 15.5s25.666 25.5 30.999 45.5c3.33301 14.667 5 41 5 79c-14.667 -14.667 -30.167 -25.834 -46.5 -33.501s-34.5 -11.5 -54.5 -11.5c-26 0 -48.833 4.83301 -68.5 14.5s-36.167 23 -49.5 40s-23.5 36.667 -30.5 59s-10.5 46.5 -10.5 72.5
c0 26.667 3.66699 51.5 11 74.5s17.666 43.167 30.999 60.5s29.833 31 49.5 41s42.167 15 67.5 15c41.333 0 77 -17.667 107 -53v45h58v-318c0.666992 -42 -2.33301 -75.333 -9 -100s-17 -43.834 -31 -57.501s-31.5 -23.167 -52.5 -28.5s-45.833 -9.66602 -74.5 -12.999
c-42.667 0 -77.5 9.66699 -104.5 29s-39.833 50.333 -38.5 93zM1921 1103.01c0 -46 5.33301 -77.667 16 -95c18.667 -32 45.334 -48 80.001 -48c14 0 27.167 2.83301 39.5 8.5s23.166 14.334 32.499 26.001s16.833 26.167 22.5 43.5s8.5 38 8.5 62c0 48 -9.66699 84 -29 108
s-42.333 36 -69 36c-28 0 -51.833 -11.833 -71.5 -35.5s-29.5 -58.834 -29.5 -105.501zM1924 917.011h-61.001v510h63v-183c12 17.333 26.5 30 43.5 38s36.167 12 57.5 12c22.667 0 43.5 -4.66699 62.5 -14s35.5 -22.333 49.5 -39s25 -36.5 33 -59.5s12 -48.167 12 -75.5
c0 -32 -4.33301 -60.333 -13 -85s-20.167 -45.167 -34.5 -61.5s-31.166 -28.833 -50.5 -37.5c-19.333 -8.66699 -39.666 -13 -60.999 -13c-22.667 0 -42.167 4.5 -58.5 13.5s-30.5 22.167 -42.5 39.5v-45zM2500 1103.01c-12 -5.33301 -26.667 -9.83496 -44 -13.502
s-37.333 -7.16699 -60 -10.5c-18 -3.33301 -32.667 -6.66602 -44 -9.99902s-20.333 -7.5 -27 -12.5s-11.167 -10.667 -13.5 -17s-3.5 -14.166 -3.5 -23.499c0 -17.333 6.16699 -31.5 18.5 -42.5s31.166 -16.5 56.5 -16.5c22.667 0 43.667 4.83301 63 14.5
s33.666 24.5 43 44.5c5.33301 14 8 35 8 63zM2502 962.009c-22.667 -19.333 -44.5 -33.001 -65.5 -41.001s-44.167 -12 -69.5 -12c-41.333 0 -72.5 9.66699 -93.5 29s-31.5 44.333 -31.5 75c0 29.333 8.66699 52.333 26 69s38 29 62 37
c6.66699 1.33301 14.667 2.66602 24 3.99902s19.666 2.66602 31 3.99902c50.667 8 88 16 112 24c1.33301 4 2.16602 7.33301 2.5 10c0.333008 2.66699 0.5 4.66699 0.5 6c0 24.667 -6.33301 42.334 -19 53.001c-17.333 14 -41.333 21 -72 21s-52.834 -5.16699 -66.5 -15.5
c-13.667 -10.333 -23.167 -28.166 -28.5 -53.499l-64 8c8 37.333 24.833 65.666 50.5 84.999s63.834 29 114.5 29c24.667 0 45.334 -2.16699 62 -6.5c16.667 -4.33301 30.334 -10.166 41 -17.499c10.667 -7.33301 18.834 -16 24.5 -26c5.66699 -10 9.83398 -20.667 12.5 -32
c1.33301 -6.66699 2.66602 -14.667 4 -24c1.33301 -9.33301 2 -20.666 2 -33.999v-85c0 -28.667 0.166992 -51.5 0.5 -68.5s1 -30.667 2 -41s2.66699 -18.5 5 -24.5s5.83301 -12 10.5 -18h-64c-4 7.33301 -6.83301 14.333 -8.5 21s-3.16699 14.667 -4.5 24zM2407 1406.01
c14 0 22 0.664062 24 1.99707c11.333 2.66699 18.333 7 21 13c0 6.66699 -3.66699 11.334 -11 14.001c-10.667 5.33301 -26.667 8 -48 8c-4 0 -8.5 -0.166992 -13.5 -0.5s-10.833 -1.16602 -17.5 -2.49902l-3 35c4 1.33301 10 2 18 2h30
c14.667 -1.33301 27.834 -3.33301 39.5 -6c11.667 -2.66699 22.167 -6 31.5 -10c18 -7.33301 28.667 -19.666 32 -36.999c0 -24 -21.333 -37.333 -64 -40v-18h-39v40zM2656 917.005v369.002h58v-53c27.333 40.667 65.666 61 115 61c37.333 0 65.666 -9 85 -27
c19.333 -18 31.666 -39 37 -63c1.33301 -6.66699 2.5 -14.834 3.5 -24.501s1.5 -21.834 1.5 -36.501v-226h-64v223c0 36 -6.5 61.833 -19.5 77.5s-32.167 23.5 -57.5 23.5c-13.333 0 -25.833 -2 -37.5 -6s-21.667 -10.667 -30 -20s-15 -21.833 -20 -37.5
s-7.5 -35.167 -7.5 -58.5v-202h-64zM3089 1106.01c0 -48 9.33301 -82.667 28 -104s42 -32 70 -32s51.667 10.667 71 32s29 56 29 104c0 44 -9.66699 77.5 -29 100.5s-43 34.5 -71 34.5s-51.333 -11.5 -70 -34.5s-28 -56.5 -28 -100.5zM3102 883.007
c2 -22.667 9 -37.665 21 -44.998c12.667 -10.667 33 -16 61 -16s49.667 5.16699 65 15.5s25.666 25.5 31 45.5c1.33301 6.66699 2.5 16.667 3.5 30s1.5 29.666 1.5 48.999c-14.667 -14.667 -30.167 -25.834 -46.5 -33.501s-34.5 -11.5 -54.5 -11.5
c-26 0 -48.833 4.83301 -68.5 14.5s-36.167 23 -49.5 40s-23.5 36.667 -30.5 59s-10.5 46.5 -10.5 72.5c0 26.667 3.5 51.5 10.5 74.5s17.333 43.167 31 60.5s30.334 31 50 41c19.667 10 42.167 15 67.5 15c41.333 0 76.666 -17.667 106 -53v45h59v-318
c0.666992 -42 -2.5 -75.333 -9.5 -100s-17.5 -43.834 -31.5 -57.501s-31.5 -23.167 -52.5 -28.5s-45.833 -9.66602 -74.5 -12.999c-42.667 0 -77.5 9.66699 -104.5 29s-39.833 50.333 -38.5 93zM3640 917.009v369.001h59v-53c12 17.333 27.167 31.833 45.5 43.5
s40.166 17.5 65.5 17.5c28 0 50.5 -5.66699 67.5 -17s29.167 -27 36.5 -47c28.667 42.667 67.334 64 116 64c76 0 114 -41.667 114 -125v-252h-63v231c0 34 -5.16699 58 -15.5 72s-27.5 21 -51.5 21c-25.333 0 -46.666 -8.83301 -64 -26.5
c-17.333 -17.667 -26 -45.834 -26 -84.501v-213h-63v239c0 28 -5 49.167 -15 63.5s-26.333 21.5 -49 21.5c-29.333 0 -52.166 -10.167 -68.5 -30.5c-16.333 -20.333 -24.5 -54.5 -24.5 -102.5v-191h-64zM4473 1103.01c-11.334 -5.33301 -25.667 -9.83496 -43 -13.502
c-17.334 -3.66699 -37.334 -7.16699 -60 -10.5c-18 -3.33301 -32.666 -6.66602 -44 -9.99902s-20.334 -7.5 -27 -12.5s-11.166 -10.667 -13.5 -17s-3.5 -14.166 -3.5 -23.499c0 -17.333 6.16602 -31.5 18.5 -42.5s31.167 -16.5 56.5 -16.5c22.666 0 43.666 4.83301 63 14.5
s33.667 24.5 43 44.5c5.33398 14 8 35 8 63zM4476 962.008c-22.666 -19.333 -44.5 -33 -65.5 -41s-44.166 -12 -69.5 -12c-41.334 0 -72.5 9.66699 -93.5 29s-31.5 44.333 -31.5 75c0 29.333 8.66602 52.333 26 69s38 29 62 37c6.66602 1.33301 14.5 2.66602 23.5 3.99902
s19.5 2.66602 31.5 3.99902c50.666 8 88 16 112 24c1.33398 4 2 7.33301 2 10v6c0 25.333 -6 43 -18 53c-17.334 14 -41.334 21 -72 21s-52.833 -5.16699 -66.5 -15.5c-13.666 -10.333 -23.166 -28.166 -28.5 -53.499l-64 8c8 37.333 24.834 65.666 50.5 84.999
s63.833 29 114.5 29c24.666 0 45.333 -2.16699 62 -6.5c16.666 -4.33301 30.333 -10.166 41 -17.499c10.666 -7.33301 18.833 -16 24.5 -26c5.66602 -10 9.83301 -20.667 12.5 -32c1.33398 -6.66699 2.5 -14.667 3.5 -24s1.5 -20.666 1.5 -33.999v-85
c0 -28.667 0.166016 -51.5 0.5 -68.5s1 -30.667 2 -41s2.83398 -18.5 5.5 -24.5s6.33301 -12 11 -18h-64c-4 7.33301 -6.83398 14.333 -8.5 21s-3.16602 14.667 -4.5 24zM4288 1350.01c-1.33398 21.333 4.5 39.001 17.5 53.001s30.166 21 51.5 21
c6.66602 0 15 -1.83301 25 -5.5s21 -8.83398 33 -15.501c14 -5.33301 24.666 -8 32 -8c6.66602 0 12.333 2.5 17 7.5c4.66602 5 7.66602 12.167 9 21.5h46c-2.66602 -49.333 -25.666 -74 -69 -74c-7.33398 0 -16 1.33301 -26 4s-21 6.66699 -33 12
c-8 4 -14.666 7.16699 -20 9.5s-10 3.5 -14 3.5c-19.334 0 -27.334 -9.66699 -24 -29h-45zM1364 535.009l69 0.000976562v-294c0 -36 -3.33301 -67.833 -10 -95.5s-17.834 -51 -33.501 -70s-36.167 -33.333 -61.5 -43s-56.666 -14.5 -93.999 -14.5
c-36.667 0 -67.667 4.16699 -93 12.5s-45.833 21.5 -61.5 39.5s-27 41 -34 69s-10.5 62 -10.5 102v294h69v-291c0 -31.333 2.16699 -57.333 6.5 -78s11.5 -37.334 21.5 -50.001s23 -21.5 39 -26.5s35.333 -7.5 58 -7.5c24 0 44.5 2.5 61.5 7.5s31 13.5 42 25.5
s19 28.5 24 49.5s7.5 47.5 7.5 79.5v291zM1539 26.0098l-0.000976562 369.001h58v-53c13.333 19.333 29.5 34.333 48.5 45s41.167 16 66.5 16c36.667 0 64.834 -9.16699 84.501 -27.5s32.167 -39.5 37.5 -63.5c1.33301 -6.66699 2.5 -14.667 3.5 -24
s1.5 -21.666 1.5 -36.999v-225h-64v223c0 36 -6.5 61.833 -19.5 77.5s-32.167 23.5 -57.5 23.5c-13.333 0 -25.833 -2 -37.5 -6s-21.667 -10.833 -30 -20.5s-15 -22.334 -20 -38.001s-7.5 -34.834 -7.5 -57.501v-202h-64zM1934 26.0107v369h64v-369h-64zM1934 464.011v71h64
v-71h-64zM2396 153.011c-6.66699 -42.667 -24.335 -75.835 -53.001 -99.502c-28.667 -23.667 -62.334 -35.5 -101 -35.5c-52 0 -92.833 16.333 -122.5 49s-44.5 79 -44.5 139c0 62.667 14.833 111.167 44.5 145.5s69.834 51.5 120.501 51.5c41.333 0 74 -10.167 98 -30.5
s40.667 -49.166 50 -86.499l-64 -8c-6.66699 22.667 -17 40.667 -31 54s-31 20 -51 20c-32 0 -57.167 -11.5 -75.5 -34.5s-27.5 -59.167 -27.5 -108.5s9 -85.166 27 -107.499s42.667 -33.5 74 -33.5c51.333 0 82 31 92 93zM2489 209.01c0 -48 10 -83.5 30 -106.5
s45.333 -34.5 76 -34.5s56.5 11.5 77.5 34.5s31.5 58.5 31.5 106.5c0 46.667 -10.5 81.834 -31.5 105.501s-46.833 35.5 -77.5 35.5s-56 -11.833 -76 -35.5s-30 -58.834 -30 -105.501zM2425 209.01c0 68.667 18.667 118.999 56 150.999c31.333 28.667 69.333 43 114 43
c24.667 0 47.5 -4.33301 68.5 -13s39.167 -21.167 54.5 -37.5s27.333 -36.166 36 -59.499s13 -49.666 13 -78.999c0 -34.667 -4.16699 -64.334 -12.5 -89.001s-20.166 -45 -35.5 -61c-15.333 -16 -33.5 -27.667 -54.5 -35s-44.167 -11 -69.5 -11
c-52 0 -93.333 16.167 -124 48.5s-46 79.833 -46 142.5zM2884 206.009c0 -46 9.83301 -80.501 29.5 -103.501s43.5 -34.5 71.5 -34.5s51.833 11.167 71.5 33.5s29.5 55.5 29.5 99.5c0 52 -10.333 89.833 -31 113.5s-45 35.5 -73 35.5c-27.333 0 -50.5 -11.667 -69.5 -35
s-28.5 -59.666 -28.5 -108.999zM3083 26.0078v45c-24.667 -35.333 -59 -53 -103 -53c-23.333 0 -44.666 4.66699 -64 14c-19.333 9.33301 -36 22.333 -50 39s-25 36.667 -33 60s-12 49.333 -12 78c0 28 3.5 53.833 10.5 77.5s17.167 44.167 30.5 61.5s29.333 30.833 48 40.5
s40 14.5 64 14.5c23.333 0 43.5 -5 60.5 -15s31.5 -22.667 43.5 -38v185h64v-509h-59zM3497 244.008c-1.33301 15.333 -4.33301 29 -9 41s-10.334 22 -17 30c-22.667 24.667 -49.334 37 -80 37c-30.667 0 -56.167 -10 -76.5 -30s-31.166 -46 -32.5 -78h215zM3558 137.008
c-10.667 -38.667 -30 -68.167 -58 -88.5s-63.333 -30.5 -106 -30.5c-54.667 0 -98 16.333 -130 49s-48 79 -48 139c0 62.667 15.667 111.167 47 145.5s73 51.5 125 51.5c26 0 49.667 -4.5 71 -13.5s39.5 -22 54.5 -39s26.667 -37.333 35 -61s12.5 -50.5 12.5 -80.5
c0 -1.33301 -0.166992 -3.33301 -0.5 -6s-1.16602 -6 -2.5 -10h-278c1.33301 -41.333 12.666 -72.5 34 -93.5c21.333 -21 48 -31.5 80 -31.5c25.333 0 46 5.83301 62 17.5s28.667 31.5 38 59.5z" />
    <glyph glyph-name="space" unicode=" " horiz-adv-x="565" 
 />
    <glyph glyph-name="exclam" unicode="!" horiz-adv-x="532" 
d="M135 0l66 309h262l-66 -309h-262zM225 432l203 954h262l-203 -954h-262z" />
    <glyph glyph-name="quotedbl" unicode="&#x22;" horiz-adv-x="813" 
d="M289 838l135 632h207l-135 -632h-207zM668 838l135 632h207l-136 -632h-206z" />
    <glyph glyph-name="numbersign" unicode="#" horiz-adv-x="1102" 
d="M664 0l79 377h-227l-80 -377h-168l80 377h-201l31 147h201l72 338h-201l31 148h200l80 376h168l-80 -376h228l79 376h168l-80 -376h199l-31 -148h-198l-72 -338h199l-31 -147h-199l-80 -377h-167zM846 862h-228l-71 -338h227z" />
    <glyph glyph-name="dollar" unicode="$" horiz-adv-x="1092" 
d="M487 0l38.999 190.002h-374l43 203h563c28.667 0 48.5 4.5 59.5 13.5s19.167 25.167 24.5 48.5l28 137c1.33301 5.33301 2 12 2 20c0 22 -14.333 33 -43 33h-419c-48 0 -82.667 9.16699 -104 27.5s-32 43.5 -32 75.5c0 13.333 2.33301 28.333 7 45l53 254
c12 61.333 35.5 106.666 70.5 135.999s88.5 44 160.5 44h183l32 159h203l-33 -159h293l-39 -185h-567c-23.333 0 -40.5 -4.33301 -51.5 -13s-18.5 -24 -22.5 -46l-26 -121c-1.33301 -5.33301 -2.5 -9.66602 -3.5 -12.999s-1.5 -7 -1.5 -11c0 -11.333 3.5 -19.333 10.5 -24
s20.167 -7 39.5 -7h419c48 0 82.333 -9.5 103 -28.5s31 -44.5 31 -76.5c0 -6.66699 -0.333008 -13.334 -1 -20.001s-2 -13.334 -4 -20.001l-61 -291c-13.333 -61.333 -37.166 -106.833 -71.499 -136.5s-86.833 -44.5 -157.5 -44.5h-111l-39 -190h-203z" />
    <glyph glyph-name="percent" unicode="%" horiz-adv-x="1597" 
d="M367 715c-36 0 -61.833 6.16602 -77.5 18.499s-23.5 30.5 -23.5 54.5c0 12.667 2 28.667 6 48l97 450c8 41.333 22.5 71.833 43.5 91.5s54.833 29.5 101.5 29.5h330c35.333 0 60.833 -6.16699 76.5 -18.5s23.5 -32.166 23.5 -59.499c0 -6.66699 -0.333008 -13.5 -1 -20.5
s-1.66699 -14.5 -3 -22.5l-96 -450c-10 -41.333 -25.833 -71.833 -47.5 -91.5s-55.167 -29.5 -100.5 -29.5h-329zM743 1210v13c0 14.667 -9.33301 22 -28 22h-146c-20 0 -32.333 -11 -37 -33l-63 -299c-1.33301 -2.66699 -2 -6.66699 -2 -12c0 -12 9 -18 27 -18h145
c23.333 0 37 10 41 30zM301 -0.000976562l1129 1386h163l-1128 -1386h-164zM1047 -20.001c-36 0 -61.833 5.99902 -77.5 17.999s-23.5 30.333 -23.5 55c0 12.667 2 28.334 6 47.001l97 451c8 40.667 22.5 71 43.5 91s54.833 30 101.5 30h330
c35.333 0 60.833 -6.16699 76.5 -18.5s23.5 -32.166 23.5 -59.499c0 -6.66699 -0.333008 -13.5 -1 -20.5s-1.66699 -14.5 -3 -22.5l-96 -451c-10 -40.667 -25.833 -70.834 -47.5 -90.501s-55.167 -29.5 -100.5 -29.5h-329zM1423 474.998v12c0 15.333 -9.33301 23 -28 23
h-146c-20 0 -32.333 -11 -37 -33l-63 -299c-1.33301 -2.66699 -2 -6.66699 -2 -12c0 -12.667 9 -19 27 -19h145c23.333 0 37 10.333 41 31z" />
    <glyph glyph-name="ampersand" unicode="&#x26;" horiz-adv-x="1366" 
d="M1118 0c-66.667 0 -120.501 6.49902 -161.501 19.499s-66.167 37.833 -75.5 74.5c-20.667 -35.333 -48.5 -59.833 -83.5 -73.5s-73.5 -20.5 -115.5 -20.5h-344c-70 0 -120 12.333 -150 37s-45 63 -45 115c0 21.333 3.66699 49.333 11 84l73 348
c11.333 52 35 89.167 71 111.5s78 35.5 126 39.5c-39.333 4 -70 15.333 -92 34s-33 47.667 -33 87c0 15.333 2 33 6 53l51 242c16.667 79.333 47.834 138.333 93.501 177s111.5 58 197.5 58h658l-52 -241h-544c-26 0 -44.833 -5.83301 -56.5 -17.5
s-20.834 -32.5 -27.501 -62.5l-41 -191c-1.33301 -5.33301 -2.33301 -10 -3 -14s-1 -8 -1 -12c0 -15.333 4.33301 -25.333 13 -30s23.334 -7 44.001 -7h340l31 145h245l-30 -145h264l-45 -209h-264l-56 -262c-4 -15.333 -6 -27.666 -6 -36.999c0 -16 5.5 -26.5 16.5 -31.5
s28.167 -7.5 51.5 -7.5h174l-55 -264h-185zM931.999 601.999h-340c-26 0 -44.833 -5.16699 -56.5 -15.5s-20.167 -27.5 -25.5 -51.5l-41 -191c-2.66699 -6.66699 -4 -13.167 -4 -19.5v-15.5c0 -30 19 -45 57 -45h338z" />
    <glyph glyph-name="quotesingle" unicode="'" horiz-adv-x="434" 
d="M289 838l135 632h207l-135 -632h-207z" />
    <glyph glyph-name="parenleft" unicode="(" horiz-adv-x="776" 
d="M641 -297c-131.333 2.66699 -233.834 30.6641 -307.501 83.9971s-110.5 140 -110.5 260c0 45.333 6.33301 98 19 158l204 969c18 88.667 45.5 164.334 82.5 227.001s81.667 114.167 134 154.5s112 70 179 89s140.167 29.833 219.5 32.5l-33 -153
c-57.333 -4 -107.833 -12.833 -151.5 -26.5s-81.5 -34.167 -113.5 -61.5s-58.667 -62.166 -80 -104.499s-38.666 -94.833 -51.999 -157.5l-205 -969c-5.33301 -26 -9.33301 -49.667 -12 -71s-4 -41.333 -4 -60c0 -75.333 21.5 -128.666 64.5 -159.999
s109.5 -50.333 199.5 -57z" />
    <glyph glyph-name="parenright" unicode=")" horiz-adv-x="778" 
d="M39 -143c57.333 4 107.5 12.8311 150.5 26.498s80.5 33.834 112.5 60.501s58.667 61.167 80 103.5s38.666 94.833 51.999 157.5l205 969c10.667 51.333 16 95 16 131c0 74.667 -21.5 128 -64.5 160s-108.833 51.667 -197.5 59l33 153
c132.667 -2.66699 235.167 -31 307.5 -85s108.5 -141 108.5 -261c0 -24.667 -1.83301 -50.667 -5.5 -78s-8.83398 -56.666 -15.501 -87.999l-200 -952c-19.333 -90 -47.166 -166.833 -83.499 -230.5s-80.666 -116 -132.999 -157s-112 -71.333 -179 -91
s-140.167 -30.167 -219.5 -31.5z" />
    <glyph glyph-name="asterisk" unicode="*" horiz-adv-x="1104" 
d="M981 504l-236 342l-235 -344l-127 96l252 326l-397 116l49 154l391 -141l-14 415h159l-12 -413l391 139l49 -152l-395 -116l254 -328z" />
    <glyph glyph-name="plus" unicode="+" horiz-adv-x="1294" 
d="M594 180l96 447h-444l37 178h444l94 444h180l-94 -444h445l-37 -178h-445l-96 -447h-180z" />
    <glyph glyph-name="comma" unicode="," horiz-adv-x="530" 
d="M20 -201l197 510h262l-229 -510h-230z" />
    <glyph glyph-name="hyphen" unicode="-" horiz-adv-x="788" 
d="M195 618l36 173h660l-37 -173h-659z" />
    <glyph glyph-name="period" unicode="." horiz-adv-x="489" 
d="M115 0l65 309h262l-65 -309h-262z" />
    <glyph glyph-name="slash" unicode="/" horiz-adv-x="846" 
d="M51 -59l852 1529h189l-852 -1529h-189z" />
    <glyph glyph-name="zero" unicode="0" horiz-adv-x="1331" 
d="M340 0c-69.333 0 -119.5 12.3311 -150.5 36.998s-46.5 62.334 -46.5 113.001c0 25.333 4.33301 56 13 92l190 903c18 82 48.167 142.667 90.5 182s107.833 59 196.5 59h651c70 0 120 -12.167 150 -36.5s45 -62.5 45 -114.5c0 -14 -1 -28.167 -3 -42.5
s-4.66699 -30.166 -8 -47.499l-190 -903c-18 -82 -48.167 -142.833 -90.5 -182.5s-107.833 -59.5 -196.5 -59.5h-651zM1153 1036c1.33301 7.33301 2.33008 13.668 2.99707 19.001s1 10.666 1 15.999c0 18 -5.16699 30.333 -15.5 37s-28.5 10 -54.5 10h-382
c-27.333 0 -47.166 -5.83301 -59.499 -17.5s-22.166 -32.5 -29.499 -62.5l-147 -692c-2.66699 -13.333 -4 -23 -4 -29c0 -27.333 19.667 -41 59 -41h383c32.667 0 55.834 5.5 69.501 16.5s23.5 28.833 29.5 53.5z" />
    <glyph glyph-name="one" unicode="1" horiz-adv-x="637" 
d="M233 0l238 1122h-188l55 264h481l-293 -1386h-293z" />
    <glyph glyph-name="two" unicode="2" horiz-adv-x="1329" 
d="M115 0l111.997 532.002c10 46.667 22.5 86.667 37.5 120s34.333 60.666 58 81.999s53 36.833 88 46.5s76.5 14.5 124.5 14.5h493c28.667 0 48.834 6 60.501 18s20.834 32.333 27.501 61l39 185c4 13.333 6 26.333 6 39c0 27.333 -21 41 -63 41h-391
c-27.333 0 -47.833 -5.5 -61.5 -16.5s-24.167 -32.167 -31.5 -63.5l-20 -101h-281l41 193c16.667 79.333 47.834 138.333 93.501 177s111.5 58 197.5 58h631c69.333 0 119 -12.167 149 -36.5s45 -61.833 45 -112.5c0 -23.333 -3.33301 -54 -10 -92l-74 -352
c-14.667 -75.333 -43.167 -131.833 -85.5 -169.5s-102.5 -56.5 -180.5 -56.5h-524c-27.333 0 -46.833 -5.83301 -58.5 -17.5s-21.5 -35.834 -29.5 -72.501l-47 -217h811l-53 -260h-1104z" />
    <glyph glyph-name="three" unicode="3" horiz-adv-x="1294" 
d="M315 0c-69.333 0 -119.331 12.3311 -149.998 36.998s-46 63 -46 115c0 21.333 3.33301 49.333 10 84l45 215h285l-25 -121c-1.33301 -7.33301 -2.33301 -13.333 -3 -18s-1 -9 -1 -13c0 -28.667 20.667 -43 62 -43h391c27.333 0 47.5 5.5 60.5 16.5
s22.833 30.167 29.5 57.5l45 217c1.33301 5.33301 2 12.666 2 21.999c0 24.667 -21.333 37 -64 37h-303l45 205h303c27.333 0 46.5 4.83301 57.5 14.5s19.167 25.834 24.5 48.501l41 193c1.33301 6.66699 2.33301 12.5 3 17.5s1 10.167 1 15.5c0 26 -19.667 39 -59 39h-387
c-27.333 0 -47.5 -5.16699 -60.5 -15.5s-22.167 -29.166 -27.5 -56.499l-23 -109h-280l41 193c16 79.333 47 138.333 93 177s112.667 58 200 58h604c72 0 123.833 -12.833 155.5 -38.5s47.5 -64.5 47.5 -116.5c0 -27.333 -3 -54 -9 -80l-55 -260
c-12 -57.333 -34.833 -99.333 -68.5 -126s-74.834 -42.667 -123.501 -48c39.333 -4 71.666 -14.167 96.999 -30.5s38 -43.166 38 -80.499c0 -6.66699 -0.333008 -13.5 -1 -20.5s-1.66699 -13.833 -3 -20.5l-70 -329c-16.667 -79.333 -46.167 -138.5 -88.5 -177.5
s-107.833 -58.5 -196.5 -58.5h-637z" />
    <glyph glyph-name="four" unicode="4" horiz-adv-x="1272" 
d="M754 0l55 268h-688l51 240l752 878h393l-187 -880h185l-51 -238h-185l-55 -268h-270zM993 1130l-544 -624h411z" />
    <glyph glyph-name="five" unicode="5" horiz-adv-x="1331" 
d="M348 0c-69.333 0 -118.999 12.3311 -148.999 36.998s-45 63 -45 115c0 21.333 3.33301 49.333 10 84l45 215h287l-27 -125c-1.33301 -7.33301 -2.33301 -13.666 -3 -18.999s-1 -10.666 -1 -15.999c0 -14 3.66699 -23.333 11 -28s21.333 -7 42 -7h389
c31.333 0 52.166 4.83301 62.499 14.5s18.833 28.167 25.5 55.5l49 231c2 6.66699 3.33301 12.5 4 17.5s1 9.5 1 13.5c0 24.667 -18 37 -54 37h-749l162 761h1067l-56 -264h-774l-57 -268h618c56 0 96.667 -12 122 -36s38 -57.667 38 -101c0 -19.333 -2 -39.333 -6 -60
l-88 -415c-18 -82 -48.167 -142.833 -90.5 -182.5s-107.833 -59.5 -196.5 -59.5h-637z" />
    <glyph glyph-name="six" unicode="6" horiz-adv-x="1315" 
d="M340 0c-71.333 0 -121.997 11.999 -151.997 35.999s-45 62 -45 114c0 25.333 4.33301 56 13 92l190 903c18 82 48.167 142.667 90.5 182s107.833 59 196.5 59h627c70.667 0 121.667 -12.833 153 -38.5s47 -64.5 47 -116.5c0 -27.333 -2.66699 -54 -8 -80l-41 -193h-278
l20 101c1.33301 6.66699 2.33301 12.667 3 18s1 11 1 17c0 16 -5.16699 27.167 -15.5 33.5s-28.5 9.5 -54.5 9.5h-391c-28.667 0 -48.834 -5.16699 -60.501 -15.5s-20.834 -31.166 -27.501 -62.499l-51 -242h631c56 0 96.667 -11.5 122 -34.5s38 -55.833 38 -98.5
c0 -10.667 -0.833008 -21.167 -2.5 -31.5s-3.83398 -20.833 -6.50098 -31.5l-79 -379c-18 -82 -47.833 -142.833 -89.5 -182.5s-107.5 -59.5 -197.5 -59.5h-633zM1049 536.999c1.33301 6.66699 2 15.334 2 26.001c0 27.333 -19.333 41 -58 41h-481l-53 -256
c-4 -19.333 -6 -34.333 -6 -45c0 -18 4.66699 -30 14 -36s23.666 -9 42.999 -9h405c28.667 0 49.834 6.16699 63.501 18.5s24.167 36.166 31.5 71.499z" />
    <glyph glyph-name="seven" unicode="7" horiz-adv-x="1126" 
d="M164 0l805 1122h-674l55 264h993l-43 -208l-817 -1178h-319z" />
    <glyph glyph-name="eight" unicode="8" horiz-adv-x="1319" 
d="M340 0c-69.333 0 -119.502 12.3311 -150.502 36.998s-46.5 63 -46.5 115c0 21.333 3.66699 49.333 11 84l69 329c11.333 52 35 89.333 71 112s78 36 126 40c-40 4 -70.833 15.167 -92.5 33.5s-32.5 47.5 -32.5 87.5c0 14.667 2 32.334 6 53.001l55 260
c16.667 79.333 47.834 138.333 93.501 177s112.167 58 199.5 58h604c72.667 0 124.667 -12.833 156 -38.5s47 -64.5 47 -116.5c0 -27.333 -2.66699 -54 -8 -80l-55 -260c-12.667 -57.333 -35.667 -99.333 -69 -126s-74.666 -42.667 -123.999 -48
c40 -4 72.5 -14.167 97.5 -30.5s37.5 -43.166 37.5 -80.499c0 -6.66699 -0.333008 -13.5 -1 -20.5s-1.66699 -13.833 -3 -20.5l-69 -329c-16.667 -79.333 -46.167 -138.5 -88.5 -177.5s-107.833 -58.5 -196.5 -58.5h-637zM1149 1067
c1.33301 6.66699 2.33203 12.166 2.99902 16.499s1 8.5 1 12.5c0 27.333 -20.333 41 -61 41h-387c-27.333 0 -47.166 -4.83301 -59.499 -14.5s-21.5 -28.167 -27.5 -55.5l-40 -197c-2 -5.33301 -3.33301 -10 -4 -14s-1 -8 -1 -12c0 -24.667 20 -37 60 -37h391
c27.333 0 46.833 4.83301 58.5 14.5s20.167 25.834 25.5 48.501zM1042 548.997c1.33301 5.33301 2 12.668 2 22.001c0 15.333 -4.33301 25.666 -13 30.999s-24.667 8 -48 8h-391c-27.333 0 -47.833 -4.33301 -61.5 -13s-22.5 -24.667 -26.5 -48l-45 -219
c-1.33301 -7.33301 -2.33301 -13.333 -3 -18s-1 -9 -1 -13c0 -28.667 20.333 -43 61 -43h391c27.333 0 47.833 5.5 61.5 16.5s23.167 30.167 28.5 57.5z" />
    <glyph glyph-name="nine" unicode="9" horiz-adv-x="1327" 
d="M350 0c-70.667 0 -121.666 12.668 -152.999 38.001s-47 64 -47 116c0 12 1 24.833 3 38.5s4.33301 28.167 7 43.5l45 208h282l-24 -110c-2.66699 -6.66699 -4 -13.167 -4 -19.5v-17.5c0 -16.667 5 -27.667 15 -33s28 -8 54 -8h390c28.667 0 48.667 5.16699 60 15.5
s20.666 31.166 27.999 62.499l49 231h-631c-56 0 -96.667 11.667 -122 35s-38 56 -38 98c0 22 2.66699 43.333 8 64l80 383c18 82 48.167 142.667 90.5 182s107.833 59 196.5 59h635c69.333 0 119 -12.167 149 -36.5s45 -61.833 45 -112.5c0 -23.333 -3.33301 -54 -10 -92
l-190 -903c-18 -82 -48.167 -142.833 -90.5 -182.5s-107.833 -59.5 -196.5 -59.5h-631zM1155 1040c4 18 5.99902 33 5.99902 45c0 18 -4.66699 30 -14 36s-23.666 9 -42.999 9h-408c-28.667 0 -49.5 -6 -62.5 -18s-22.833 -36 -29.5 -72l-41 -194
c-2.66699 -14 -4 -23.667 -4 -29c0 -26 19.667 -39 59 -39h482z" />
    <glyph glyph-name="colon" unicode=":" horiz-adv-x="516" 
d="M127 0l66 309h262l-66 -309h-262zM281 729l65 309h262l-65 -309h-262z" />
    <glyph glyph-name="semicolon" unicode=";" horiz-adv-x="539" 
d="M299 729l66 309h262l-66 -309h-262zM14 -201l197 510h262l-229 -510h-230z" />
    <glyph glyph-name="less" unicode="&#x3c;" horiz-adv-x="1294" 
d="M242 612l28 131l1166 459l-41 -194l-848 -330l708 -330l-41 -192z" />
    <glyph glyph-name="equal" unicode="=" horiz-adv-x="1294" 
d="M193 383l38 178h1069l-38 -178h-1069zM297 868l37 181h1069l-37 -181h-1069z" />
    <glyph glyph-name="greater" unicode="&#x3e;" horiz-adv-x="1294" 
d="M145 156l41 192l848 330l-708 330l41 194l972 -459l-28 -131z" />
    <glyph glyph-name="question" unicode="?" horiz-adv-x="1284" 
d="M879 588c-22 0 -37.1689 -3.83105 -45.502 -11.498s-15.166 -23.167 -20.499 -46.5l-22 -98h-259l41 191c12.667 57.333 37 101.666 73 132.999s85.667 47 149 47h219c31.333 0 52.5 4.66699 63.5 14s19.833 29.333 26.5 60l39 178c1.33301 6.66699 2.33301 13 3 19
s1 12 1 18c0 16 -5.16699 27.5 -15.5 34.5s-27.833 10.5 -52.5 10.5h-399c-27.333 0 -47.166 -5.83301 -59.499 -17.5s-21.833 -31.834 -28.5 -60.501l-21 -101h-280l41 193c16 79.333 47 138.333 93 177s112 58 198 58h639c70.667 0 121 -12.167 151 -36.5
s45 -61.833 45 -112.5c0 -23.333 -3.33301 -54 -10 -92l-68 -324c-16 -77.333 -43.167 -135.5 -81.5 -174.5s-96.5 -58.5 -174.5 -58.5h-245zM439.998 0.00195312l66 309h262l-66 -309h-262z" />
    <glyph glyph-name="at" unicode="@" horiz-adv-x="1266" 
d="M207 -350c-53.333 0 -91.332 8.83203 -113.999 26.499s-34 46.167 -34 85.5c0 23.333 3 48 9 74l256 1204c13.333 66 36 113.667 68 143s82.333 44 151 44h700c52 0 89.333 -8.83301 112 -26.5s34 -45.834 34 -84.501c0 -19.333 -3.66699 -44.666 -11 -75.999l-164 -772
c-13.333 -65.333 -35.333 -112.666 -66 -141.999s-80.334 -44 -149.001 -44h-315c-53.333 0 -91.5 9.16699 -114.5 27.5s-34.5 47.5 -34.5 87.5c0 10.667 0.666992 21.834 2 33.501s3.33301 24.167 6 37.5l82 381c14.667 67.333 39.5 115.333 74.5 144s83.167 43 144.5 43
h207l-35 -162h-150c-20 0 -34.833 -4.5 -44.5 -13.5s-17.167 -25.167 -22.5 -48.5l-64 -301c-4 -14.667 -6 -26.334 -6 -35.001c0 -21.333 15 -32 45 -32h195c23.333 0 40 4.66699 50 14s17.667 26.333 23 51l146 690c1.33301 7.33301 2.33301 13.333 3 18s1 9 1 13
c0 22 -14.333 33 -43 33h-569c-23.333 0 -39.5 -4.83301 -48.5 -14.5s-16.167 -26.167 -21.5 -49.5l-229 -1079l-3.5 -18c-1 -5.33301 -1.5 -10.333 -1.5 -15c0 -12 3.5 -20.333 10.5 -25s20.167 -7 39.5 -7h782l-43 -205h-858z" />
    <glyph glyph-name="A" unicode="A" 
d="M954 0l-14 215h-500l-106 -215h-301l721 1386h407l107 -1386h-314zM887 1108l-336 -664h379z" />
    <glyph glyph-name="B" unicode="B" horiz-adv-x="1360" 
d="M115 0l217.003 1030h311l-47 -223h434c30 0 50.833 4.83301 62.5 14.5s20.167 25.834 25.5 48.501l35 168c4 14 6 26.333 6 37c0 16.667 -4.83301 28 -14.5 34s-25.834 9 -48.501 9h-744l56 268h882c71.333 0 122.666 -12.5 153.999 -37.5s47 -63.5 47 -115.5
c0 -12.667 -1 -25.667 -3 -39s-4.33301 -27.666 -7 -42.999l-56 -260c-12 -57.333 -33.667 -99.333 -65 -126s-71 -42.667 -119 -48c39.333 -4 71.666 -14.167 96.999 -30.5s38 -43.166 38 -80.499c0 -6.66699 -0.333008 -13.5 -1 -20.5s-1.66699 -13.833 -3 -20.5l-69 -329
c-16.667 -79.333 -46.5 -138.5 -89.5 -177.5s-108.167 -58.5 -195.5 -58.5h-903zM1057 534.997c1.33301 6.66699 2.33301 12.667 3 18s1 10 1 14c0 18 -5.5 29.667 -16.5 35s-28.167 8 -51.5 8h-438l-72 -338h439c31.333 0 53.5 5.16699 66.5 15.5s22.833 31.833 29.5 64.5z
" />
    <glyph glyph-name="C" unicode="C" horiz-adv-x="1200" 
d="M338 0c-70 0 -119.998 12.334 -149.998 37.001s-45 63 -45 115c0 13.333 0.666992 27.166 2 41.499s4.33301 30.5 9 48.5l190 903c18 82 48.5 142.667 91.5 182s108.167 59 195.5 59h780l-57 -276h-627c-32.667 0 -54.834 -5.16699 -66.501 -15.5
s-20.834 -31.166 -27.501 -62.499l-146 -676c-1.33301 -6.66699 -2.33301 -12.334 -3 -17.001s-1 -9.66699 -1 -15c0 -15.333 4.83301 -26.333 14.5 -33s27.5 -10 53.5 -10h631l-60 -281h-784z" />
    <glyph glyph-name="D" unicode="D" horiz-adv-x="1384" 
d="M115 0l214.999 1012h307l-158 -742h436c72.667 0 118.667 44.333 138 133l123 578c4 16.667 6 32.334 6 47.001c0 57.333 -29.333 86 -88 86h-744l58 272h800c202 0 303 -81.667 303 -245c0 -34 -4 -70.333 -12 -109l-145 -678c-24.667 -116 -73.167 -204 -145.5 -264
s-170.166 -90 -293.499 -90h-800z" />
    <glyph glyph-name="E" unicode="E" horiz-adv-x="1247" 
d="M104 0l215 1014h322l-49 -226h510l-47 -221h-510l-62 -291h707l-57 -276h-1029zM340 1116l57 270h1028l-57 -270h-1028z" />
    <glyph glyph-name="F" unicode="F" horiz-adv-x="1214" 
d="M551 551l-117 -551h-321l215 1012h321l-49 -230h522l-49 -231h-522zM348 1114l58 272h1026l-58 -272h-1026z" />
    <glyph glyph-name="G" unicode="G" horiz-adv-x="1321" 
d="M340 0c-69.333 0 -119.501 12.332 -150.501 36.999s-46.5 62.334 -46.5 113.001c0 25.333 4.33301 56 13 92l190 903c18 82 48.167 142.667 90.5 182s107.833 59 196.5 59h856l-57 -276h-721c-27.333 0 -46.166 -4.83301 -56.499 -14.5s-18.833 -30.167 -25.5 -61.5
l-150 -706c-2.66699 -14 -4 -23 -4 -27c0 -13.333 4.16699 -22.5 12.5 -27.5s22.5 -7.5 42.5 -7.5h445l67 316h-274l47 223h565l-170 -805h-870z" />
    <glyph glyph-name="H" unicode="H" horiz-adv-x="1395" 
d="M1278 0h-311l120 573h-542l-121 -573h-311l293 1386h311l-117 -552h543l117 552h311z" />
    <glyph glyph-name="I" unicode="I" horiz-adv-x="553" 
d="M119 0l293 1386h311l-293 -1386h-311z" />
    <glyph glyph-name="J" unicode="J" horiz-adv-x="1116" 
d="M57 0l60 281h559c31.333 0 52.166 5 62.499 15s18.833 29.333 25.5 58l162 762h-242l57 270h553l-241 -1144c-18 -82 -48.167 -142.833 -90.5 -182.5s-107.166 -59.5 -194.499 -59.5h-711z" />
    <glyph glyph-name="K" unicode="K" horiz-adv-x="1446" 
d="M1024 0l104 494c4.66699 20 7 36.333 7 49c0 18.667 -5.83301 31.167 -17.5 37.5s-32.5 9.5 -62.5 9.5h-455l29 141l639 655h340l-568 -567h222c137.333 0 206 -60.667 206 -182c0 -30 -4 -63.333 -12 -100l-113 -537h-319zM113 0l293 1386h311l-293 -1386h-311z" />
    <glyph glyph-name="L" unicode="L" horiz-adv-x="1104" 
d="M1040 0h-929l292 1386h312l-234 -1105h619z" />
    <glyph glyph-name="M" unicode="M" horiz-adv-x="1659" 
d="M1290 0l178 842l-514 -842h-243l-166 842l-178 -842h-258l292 1386h336l181 -964l598 964h323l-293 -1386h-256z" />
    <glyph glyph-name="N" unicode="N" horiz-adv-x="1440" 
d="M1116 0l-524 909l-193 -909h-288l292 1386h293l455 -827l174 827h291l-293 -1386h-207z" />
    <glyph glyph-name="O" unicode="O" horiz-adv-x="1368" 
d="M340 0c-69.333 0 -119.499 12.332 -150.499 36.999s-46.5 62.334 -46.5 113.001c0 25.333 4.33301 56 13 92l190 903c18 82 48.167 142.667 90.5 182s107.833 59 196.5 59h690c69.333 0 119.166 -12.167 149.499 -36.5s45.5 -62.5 45.5 -114.5
c0 -14 -1.16699 -28.5 -3.5 -43.5l-7.5 -46.5l-190 -903c-18 -82 -48.5 -142.833 -91.5 -182.5s-108.167 -59.5 -195.5 -59.5h-690zM1174 1036c1.33301 7.33301 2.33301 13.667 3 19s1 10 1 14c0 31.333 -24 47 -72 47h-387c-27.333 0 -46.833 -5.5 -58.5 -16.5
s-20.834 -32.167 -27.501 -63.5l-148 -690c-2.66699 -13.333 -4 -22.333 -4 -27c0 -28.667 20 -43 60 -43h387c32.667 0 55.834 5.5 69.501 16.5s23.167 28.833 28.5 53.5z" />
    <glyph glyph-name="P" unicode="P" horiz-adv-x="1300" 
d="M520 446l-94 -446h-311l215 1014h311l-68 -316h428c26 0 44.167 5.5 54.5 16.5s18.833 32.167 25.5 63.5l60 273c2.66699 13.333 4 22.666 4 27.999c0 15.333 -4.5 25.333 -13.5 30s-22.833 7 -41.5 7h-740l58 270h868c69.333 0 119 -12.167 149 -36.5
s45 -62.5 45 -114.5c0 -14 -1 -28.167 -3 -42.5s-4.33301 -30.166 -7 -47.499l-96 -457c-18 -82 -48.167 -142.833 -90.5 -182.5s-107.833 -59.5 -196.5 -59.5h-557z" />
    <glyph glyph-name="Q" unicode="Q" horiz-adv-x="1378" 
d="M913 -197l263.002 1237c1.33301 7.33301 2.33301 13.666 3 18.999s1 10 1 14c0 15.333 -4.83301 26 -14.5 32s-26.834 9 -51.501 9h-403c-23.333 0 -40.5 -5.16699 -51.5 -15.5s-19.833 -29.833 -26.5 -58.5l-131 -618c-1.33301 -6.66699 -2.33301 -12.167 -3 -16.5
s-1 -8.5 -1 -12.5c0 -24.667 17 -37 51 -37h379l-58 -274h-514c-69.333 0 -119.333 12.333 -150 37s-46 62 -46 112c0 26 4 57 12 93l174 821c18 82 48.167 142.667 90.5 182s107.833 59 196.5 59h690c69.333 0 119.166 -12.167 149.499 -36.5s45.5 -62.5 45.5 -114.5
c0 -14 -1.16699 -28.5 -3.5 -43.5l-7.5 -46.5l-284 -1342h-310z" />
    <glyph glyph-name="R" unicode="R" horiz-adv-x="1358" 
d="M940 0l94.002 452.996c1.33301 6.66699 2.33301 12.334 3 17.001s1 9 1 13c0 22 -19 33 -57 33h-449l-108 -516h-311l215 1014h311l-57 -269h426c30 0 50 4.83301 60 14.5s18.667 28.834 26 57.501l49 225c1.33301 7.33301 2.33301 13.666 3 18.999s1 10 1 14
c0 16.667 -4.83301 27.667 -14.5 33s-26.167 8 -49.5 8h-735l58 270h880c71.333 0 122.666 -12.5 153.999 -37.5s47 -63.5 47 -115.5c0 -12.667 -1 -25.667 -3 -39s-4.33301 -27.666 -7 -42.999l-64 -301c-14.667 -71.333 -41.834 -121.666 -81.501 -150.999
s-83.5 -46.666 -131.5 -51.999c44 -2.66699 81 -12.5 111 -29.5s45 -47.5 45 -91.5v-21c0 -7.33301 -1.33301 -15.333 -4 -24l-101 -481h-311z" />
    <glyph glyph-name="S" unicode="S" horiz-adv-x="1323" 
d="M106 0l58 269.999h739c24.667 0 42.834 4.83301 54.501 14.5s20.167 27.5 25.5 53.5l41 192c1.33301 6 2 13.667 2 23c0 24.667 -17.667 37 -53 37h-547c-56 0 -96.667 12 -122 36s-38 57.667 -38 101c0 16.667 2 36.334 6 59.001l76 359c18 82 48.167 142.667 90.5 182
s108.5 59 198.5 59h862l-55 -264h-735c-22 0 -37.833 -4.66699 -47.5 -14s-17.167 -26.333 -22.5 -51l-39 -183c-1.33301 -5.33301 -2.33301 -10 -3 -14s-1 -8 -1 -12c0 -20.667 15 -31 45 -31h555c57.333 0 98.666 -12.333 123.999 -37s38 -58.667 38 -102
c0 -18 -2 -37 -6 -57l-80 -379c-18 -82 -48.167 -142.833 -90.5 -182.5s-107.833 -59.5 -196.5 -59.5h-879z" />
    <glyph glyph-name="T" unicode="T" horiz-adv-x="1092" 
d="M698 0h-311l236 1114h-336l57 272h985l-57 -272h-338z" />
    <glyph glyph-name="U" unicode="U" horiz-adv-x="1382" 
d="M346 0c-70.667 0 -120.998 12.333 -150.998 37s-45 63 -45 115c0 13.333 0.666992 27.5 2 42.5s4 30.833 8 47.5l241 1144h312l-219 -1036c-4.66699 -16 -7 -28.333 -7 -37c0 -14.667 4.83301 -24.5 14.5 -29.5s25.5 -7.5 47.5 -7.5h409c27.333 0 47.166 4.5 59.499 13.5
s22.166 29.167 29.499 60.5l219 1036h299l-242 -1144c-18 -82 -48.5 -142.833 -91.5 -182.5s-108.167 -59.5 -195.5 -59.5h-690z" />
    <glyph glyph-name="V" unicode="V" 
d="M461 0l-135 1386h321l78 -1011l526 1011h310l-750 -1386h-350z" />
    <glyph glyph-name="W" unicode="W" horiz-adv-x="2044" 
d="M1282 0l-51 989l-504 -989h-348l-53 1386h319l23 -1015l501 1015h312l43 -1013l473 1013h305l-670 -1386h-350z" />
    <glyph glyph-name="X" unicode="X" horiz-adv-x="1356" 
d="M989 0l-196 561l-439 -561h-331l598 737l-271 649h338l193 -512l409 512h322l-557 -673l278 -713h-344z" />
    <glyph glyph-name="Y" unicode="Y" horiz-adv-x="1264" 
d="M475 0l121 571l-277 815h326l170 -546l402 546h311l-621 -815l-121 -571h-311z" />
    <glyph glyph-name="Z" unicode="Z" horiz-adv-x="1233" 
d="M100 0l54 252l839 862h-643l58 272h1017l-49 -239l-827 -871h641l-57 -276h-1033z" />
    <glyph glyph-name="bracketleft" unicode="[" horiz-adv-x="635" 
d="M90 -297l420 1974h410l-33 -147h-225l-357 -1675h225l-30 -152h-410z" />
    <glyph glyph-name="backslash" unicode="\" horiz-adv-x="846" 
d="M578 -59l-201 1529h188l201 -1529h-188z" />
    <glyph glyph-name="bracketright" unicode="]" horiz-adv-x="635" 
d="M8 -297l31 152h229l357 1675h-230l33 147h410l-420 -1974h-410z" />
    <glyph glyph-name="asciicircum" unicode="^" horiz-adv-x="1006" 
d="M842 582l-107 520l-329 -520h-195l518 804h131l176 -804h-194z" />
    <glyph glyph-name="underscore" unicode="_" horiz-adv-x="1257" 
d="M-53 -328l37 170h1224l-37 -170h-1224z" />
    <glyph glyph-name="grave" unicode="`" horiz-adv-x="762" 
d="M713 1165l-264 418h231l215 -418h-182z" />
    <glyph glyph-name="a" unicode="a" horiz-adv-x="1290" 
d="M283 0c-52 0 -89.667 9.83398 -113 29.501s-35 49.5 -35 89.5c0 18.667 3.33301 44 10 76l52 245c8 38.667 17.5 70.834 28.5 96.501s24.667 46.167 41 61.5s36 26 59 32s51.167 9 84.5 9h526l-37 -176h-377c-18.667 0 -32.167 -3.5 -40.5 -10.5
s-14.5 -21.167 -18.5 -42.5l-23 -109c-1.33301 -6.66699 -2.33301 -12 -3 -16s-1 -8.33301 -1 -13c0 -17.333 13 -26 39 -26h479l109 508c1.33301 5.33301 2 12.666 2 21.999c0 11.333 -3.5 20 -10.5 26s-19.833 9 -38.5 9h-703l47 225h848c60 0 102.333 -9.83301 127 -29.5
s37 -50.834 37 -93.501c0 -18.667 -3.33301 -45 -10 -79l-176 -834h-903z" />
    <glyph glyph-name="b" unicode="b" horiz-adv-x="1282" 
d="M106 0l312 1470h287l-259 -1216h447c20.667 0 35.334 4.16699 44.001 12.5s15.667 23.166 21 44.499l89 420c2.66699 14 4 23 4 27c0 12 -3.83301 20 -11.5 24s-18.834 6 -33.501 6h-344l53 248h487c109.333 0 164 -45.667 164 -137c0 -9.33301 -0.666992 -19.5 -2 -30.5
s-3.33301 -22.5 -6 -34.5l-133 -631c-15.333 -70 -41 -121.333 -77 -154s-91 -49 -165 -49h-877z" />
    <glyph glyph-name="c" unicode="c" horiz-adv-x="1110" 
d="M295 0c-57.333 0 -98.667 9.83203 -124 29.499s-38 50.834 -38 93.501c0 19.333 3.33301 46 10 80l133 631c15.333 69.333 40.333 120.333 75 153s89 49 163 49h731l-53 -252h-584c-23.333 0 -39 -3.33301 -47 -10s-14.667 -21.667 -20 -45l-88 -414
c-1.33301 -5.33301 -2.33301 -10 -3 -14s-1 -8 -1 -12c0 -20.667 15.667 -31 47 -31h583l-53 -258h-731z" />
    <glyph glyph-name="d" unicode="d" horiz-adv-x="1286" 
d="M295 0c-57.333 0 -98.667 9.83105 -124 29.498s-38 50.834 -38 93.501c0 19.333 3.33301 46 10 80l133 631c15.333 69.333 42.5 120.333 81.5 153s91.167 49 156.5 49h490l-54 -248h-342c-22 0 -37.333 -3.66699 -46 -11s-15.667 -22.666 -21 -45.999l-88 -420
c-2.66699 -13.333 -4 -22 -4 -26c0 -20.667 15.667 -31 47 -31h444l258 1216h289l-311 -1470h-881z" />
    <glyph glyph-name="e" unicode="e" horiz-adv-x="1266" 
d="M287 0c-58.667 0 -100.667 9.83203 -126 29.499s-38 50.834 -38 93.501c0 19.333 3.33301 46 10 80l133 631c15.333 69.333 40.333 120.333 75 153s89.667 49 165 49h700c52 0 89.333 -9.83301 112 -29.5s34 -49.167 34 -88.5c0 -24.667 -3 -50 -9 -76l-86 -408h-690
l35 172h418l31 139c1.33301 7.33301 2 16.333 2 27s-3.16699 18.167 -9.5 22.5s-17.5 6.5 -33.5 6.5h-412c-23.333 0 -39 -3.83301 -47 -11.5s-15 -23.167 -21 -46.5l-96 -446c-1.33301 -6.66699 -2.33301 -12.5 -3 -17.5s-1 -9.5 -1 -13.5c0 -12 3.5 -20 10.5 -24
s19.167 -6 36.5 -6h699l-50 -236h-839z" />
    <glyph glyph-name="f" unicode="f" horiz-adv-x="711" 
d="M109 0l260.001 1233c18.667 87.333 47.5 148.666 86.5 183.999s91.833 53 158.5 53h357l-47 -223h-215c-34.667 0 -55.334 -17.667 -62.001 -53l-33 -158h256l-47 -225h-256l-172 -811h-286z" />
    <glyph glyph-name="g" unicode="g" horiz-adv-x="1255" 
d="M33 -434l53 248h692c23.333 0 39.5 4 48.5 12s16.167 23.667 21.5 47l194 915h-446c-23.333 0 -39.333 -4 -48 -12s-15.334 -23 -20.001 -45l-94 -442c-1.33301 -6.66699 -2 -14.334 -2 -23.001c0 -22 15.667 -33 47 -33h344l-49 -233h-491
c-57.333 0 -98.666 9.83301 -123.999 29.5s-38 50.834 -38 93.501c0 19.333 3.33301 46 10 80l133 631c15.333 69.333 40.333 120.333 75 153s89 49 163 49h880l-270 -1267c-14.667 -70 -39.5 -121.333 -74.5 -154s-90.167 -49 -165.5 -49h-839z" />
    <glyph glyph-name="h" unicode="h" horiz-adv-x="1333" 
d="M940 0l154 730.999c2.66699 14 4 22.333 4 25c0 21.333 -17 32 -51 32h-429c-20 0 -34.833 -3.66699 -44.5 -11s-17.167 -22.666 -22.5 -45.999l-154 -731h-286l311 1470h287l-117 -546c27.333 39.333 57 67.833 89 85.5s70 26.5 114 26.5h454
c56 0 96.667 -9.5 122 -28.5s38 -51.167 38 -96.5c0 -26 -2.66699 -51.667 -8 -77l-176 -834h-285z" />
    <glyph glyph-name="i" unicode="i" horiz-adv-x="518" 
d="M115 0l219 1036h287l-220 -1036h-286zM360 1159l66 311h289l-66 -311h-289z" />
    <glyph glyph-name="j" unicode="j" horiz-adv-x="547" 
d="M-244 -434l53.999 248h233c22 0 37.333 4 46 12s15.334 21.667 20.001 41l247 1169h287l-270 -1267c-15.333 -70 -40.333 -121.333 -75 -154s-89 -49 -163 -49h-379zM380.999 1159l65 311h289l-65 -311h-289z" />
    <glyph glyph-name="k" unicode="k" horiz-adv-x="1323" 
d="M109 0l311 1470h289l-312 -1470h-288zM936 0l72 344c1.33301 6.66699 2.33301 13.167 3 19.5s1 12.166 1 17.499c0 16.667 -4.83301 28.334 -14.5 35.001s-26.167 10 -49.5 10h-409l22 104l539 506h315l-454 -415h198c104 0 156 -48 156 -144
c0 -24.667 -2.66699 -50 -8 -76l-84 -401h-287z" />
    <glyph glyph-name="l" unicode="l" horiz-adv-x="508" 
d="M111 0l311 1470h287l-312 -1470h-286z" />
    <glyph glyph-name="m" unicode="m" horiz-adv-x="1917" 
d="M1524 0l153.001 731c1.33301 5.33301 2.33301 10.166 3 14.499s1 8.5 1 12.5c0 20 -17 30 -51 30h-307c-22 0 -37.667 -3.66699 -47 -11s-16.333 -20.666 -21 -39.999l-155 -737h-287l154 731c1.33301 5.33301 2.33301 10.166 3 14.499s1 8.5 1 12.5
c0 20 -16.333 30 -49 30h-310c-20 0 -34.833 -3.66699 -44.5 -11s-17.167 -22.666 -22.5 -45.999l-154 -731h-287l220 1036h276l-25 -112c49.333 74.667 117 112 203 112h346c52 0 91 -8.83301 117 -26.5s39.667 -46.167 41 -85.5c31.333 39.333 62.666 67.833 93.999 85.5
s69 26.5 113 26.5h346c54.667 0 95 -9.83301 121 -29.5s39 -52.167 39 -97.5c0 -24.667 -2.66699 -49.667 -8 -75l-177 -834h-286z" />
    <glyph glyph-name="n" unicode="n" horiz-adv-x="1329" 
d="M934 0l153 730.999c3.33301 14 5 22.333 5 25c0 21.333 -17.333 32 -52 32h-428c-20 0 -34.833 -3.66699 -44.5 -11s-17.167 -22.666 -22.5 -45.999l-154 -731h-287l220 1036h276l-25 -112c49.333 74.667 117 112 203 112h465c56 0 96.667 -9.5 122 -28.5
s38 -51.167 38 -96.5c0 -26 -2.66699 -51.667 -8 -77l-176 -834h-285z" />
    <glyph glyph-name="o" unicode="o" horiz-adv-x="1296" 
d="M295 0c-57.333 0 -98.667 9.83301 -124 29.5s-38 50.834 -38 93.501c0 19.333 3.33301 46 10 80l133 631c15.333 69.333 40.333 120.333 75 153s89 49 163 49h705c60 0 102.167 -9.83301 126.5 -29.5s36.5 -50.834 36.5 -93.501c0 -18.667 -3.33301 -45 -10 -79
l-133 -631c-14.667 -70 -39.5 -121.333 -74.5 -154s-90.167 -49 -165.5 -49h-704zM1063 731c2.66699 14 4 22.332 4 24.999c0 21.333 -18.333 32 -55 32h-406c-22 0 -37.333 -3.66699 -46 -11s-15 -22.666 -19 -45.999l-88 -422c-1.33301 -5.33301 -2.33301 -10 -3 -14
s-1 -8 -1 -12c0 -19.333 15 -29 45 -29h405c24.667 0 42.5 4.16699 53.5 12.5s18.5 22.5 22.5 42.5z" />
    <glyph glyph-name="p" unicode="p" horiz-adv-x="1278" 
d="M496 0l50.9971 246.001h344c20.667 0 35.334 3.66699 44.001 11s15.667 22.666 21 45.999l91 420c1.33301 6.66699 2 15.667 2 27c0 12 -3.16699 20.333 -9.5 25s-17.5 7 -33.5 7h-447l-260 -1216h-287l314 1470h876c60 0 102.333 -10.167 127 -30.5s37 -51.833 37 -94.5
c0 -26 -2.66699 -51.667 -8 -77l-133 -631c-15.333 -71.333 -43.166 -123 -83.499 -155s-93.166 -48 -158.499 -48h-487z" />
    <glyph glyph-name="q" unicode="q" horiz-adv-x="1282" 
d="M793 -434l259.999 1216h-445c-23.333 0 -39 -4 -47 -12s-14.667 -23.667 -20 -47l-90 -420c-3.33301 -13.333 -5 -22.333 -5 -27c0 -12 3.83301 -20 11.5 -24s19.834 -6 36.501 -6h342l-52 -246h-489c-106.667 0 -160 44.333 -160 133c0 23.333 2.66699 46.666 8 69.999
l133 631c15.333 69.333 40.333 120.333 75 153s89 49 163 49h881l-314 -1470h-288z" />
    <glyph glyph-name="r" unicode="r" horiz-adv-x="924" 
d="M104 0l220 1036h278l-24 -112c25.333 39.333 54.166 67.833 86.499 85.5s70.833 26.5 115.5 26.5h301l-53 -248h-414c-20 0 -35.167 -3.66699 -45.5 -11s-18.166 -22.666 -23.499 -45.999l-154 -731h-287z" />
    <glyph glyph-name="s" unicode="s" horiz-adv-x="1272" 
d="M106 0l50 238h710c22 0 36.833 3.33301 44.5 10s13.5 19.667 17.5 39l22 102c1.33301 4 2 9.66699 2 17c0 17.333 -13.667 26 -41 26h-555c-46 0 -79.667 9.16699 -101 27.5s-32 43.5 -32 75.5c0 13.333 2 28.333 6 45l58 276c12 61.333 35.167 106.666 69.5 135.999
s87.5 44 159.5 44h856l-49 -231h-707c-21.333 0 -36.833 -4.16699 -46.5 -12.5s-16.5 -22.5 -20.5 -42.5l-19 -86c-1.33301 -4.66699 -2 -11 -2 -19c0 -22 14.333 -33 43 -33h562c47.333 0 81.666 -9.5 102.999 -28.5s32 -44.167 32 -75.5
c0 -6.66699 -0.333008 -13.5 -1 -20.5s-1.66699 -13.833 -3 -20.5l-62 -287c-13.333 -61.333 -37.166 -106.666 -71.499 -135.999s-87.5 -44 -159.5 -44h-865z" />
    <glyph glyph-name="t" unicode="t" horiz-adv-x="700" 
d="M299 0c-57.333 0 -98.667 9.83203 -124 29.499s-38 50.834 -38 93.501c0 19.333 3.33301 46 10 80l238 1122h287l-62 -289h250l-47 -225h-250l-112 -530c-3.33301 -14 -5 -23 -5 -27c0 -19.333 15.333 -29 46 -29h188l-47 -225h-334z" />
    <glyph glyph-name="u" unicode="u" horiz-adv-x="1311" 
d="M928 0l22.001 111c-26 -40 -55 -68.5 -87 -85.5s-69.667 -25.5 -113 -25.5h-451c-54.667 0 -95.334 9.5 -122.001 28.5s-40 51.167 -40 96.5c0 20.667 3.33301 46.667 10 78l177 833h286l-155 -731c-2.66699 -13.333 -4 -22 -4 -26c0 -22 16.333 -33 49 -33h411
c22 0 37.833 4 47.5 12s17.167 23.667 22.5 47l156 731h286l-219 -1036h-276z" />
    <glyph glyph-name="v" unicode="v" horiz-adv-x="1235" 
d="M432 0l-184 1036h309l119 -753l454 753h295l-649 -1036h-344z" />
    <glyph glyph-name="w" unicode="w" horiz-adv-x="1845" 
d="M1133 0l-64 719l-393 -719h-357l-71 1036h315l27 -741l389 741h338l55 -739l361 739h303l-541 -1036h-362z" />
    <glyph glyph-name="x" unicode="x" horiz-adv-x="1253" 
d="M885 0l-180 397l-355 -397h-332l496 553l-244 483h340l178 -370l330 370h324l-461 -501l254 -535h-350z" />
    <glyph glyph-name="y" unicode="y" horiz-adv-x="1249" 
d="M31 -434l52.9971 247.998h688c23.333 0 39.5 4 48.5 12s16.167 23.667 21.5 47l28 127h-589c-57.333 0 -98.666 9.83301 -123.999 29.5s-38 50.834 -38 93.501c0 19.333 3.33301 46 10 80l176 833h287l-158 -743c-1.33301 -5.33301 -2.33301 -10.166 -3 -14.499
s-1 -8.5 -1 -12.5c0 -22 16.333 -33 49 -33h441l170 803h288l-270 -1267c-15.333 -70 -40.666 -121.333 -75.999 -154s-90.666 -49 -165.999 -49h-835z" />
    <glyph glyph-name="z" unicode="z" horiz-adv-x="1169" 
d="M96 0l47 227l713 568h-590l51 241h973l-43 -205l-704 -585h579l-51 -246h-975z" />
    <glyph glyph-name="braceleft" unicode="{" horiz-adv-x="745" 
d="M608 -297c-128 2.66699 -223.502 27.834 -286.502 75.501s-94.5 121.5 -94.5 221.5c0 22 1 44.5 3 67.5s6.66699 47.5 14 73.5l82 381c1.33301 6.66699 2.33301 12.834 3 18.501s1 11.167 1 16.5c0 48 -24 72 -72 72h-29l25 121h29c27.333 0 51.5 10.167 72.5 30.5
s34.833 46.166 41.5 77.499l80 381c31.333 148.667 91.833 258.167 181.5 328.5s212.834 106.833 369.501 109.5l-33 -153c-95.333 -2.66699 -170.333 -27.667 -225 -75s-91.667 -117.333 -111 -210l-79 -381c-11.333 -53.333 -28.166 -91.833 -50.499 -115.5
s-51.5 -41.167 -87.5 -52.5c23.333 -6.66699 41.5 -17.834 54.5 -33.501s19.5 -38.5 19.5 -68.5c0 -22 -2.66699 -44 -8 -66l-82 -381c-4 -17.333 -6.66699 -33.5 -8 -48.5s-2 -29.5 -2 -43.5c0 -124 75 -188 225 -192z" />
    <glyph glyph-name="bar" unicode="|" horiz-adv-x="502" 
d="M94 -297l420 1974h184l-419 -1974h-185z" />
    <glyph glyph-name="braceright" unicode="}" horiz-adv-x="750" 
d="M41 -143c182.667 5.33301 293.997 99.334 333.997 282.001l63 297c15.333 67.333 34.833 123.5 58.5 168.5s55.5 73.5 95.5 85.5c-46.667 14 -70 49 -70 105c0 14.667 1.33301 30.5 4 47.5s6.33398 35.833 11.001 56.5l71 338c2.66699 16.667 5 32.5 7 47.5
s3 29.833 3 44.5c0 124.667 -74.333 189.667 -223 195l33 153c132.667 -2.66699 228.334 -28.5 287.001 -77.5s88 -124.167 88 -225.5c0 -56 -7 -115.333 -21 -178l-71 -338c-2.66699 -6.66699 -4 -13.167 -4 -19.5v-17.5c0 -47.333 23 -71 69 -71h29l-25 -121h-28
c-27.333 0 -51.666 -9.66699 -72.999 -29s-35.333 -46 -42 -80l-72 -338c-16 -80.667 -38.333 -150.667 -67 -210s-65.167 -108.833 -109.5 -148.5s-98 -69.334 -161 -89.001s-136.167 -30.167 -219.5 -31.5z" />
    <glyph glyph-name="asciitilde" unicode="~" horiz-adv-x="1290" 
d="M1311 645c-20.667 -13.333 -43.332 -25.1709 -67.999 -35.5039s-50.334 -18.666 -77.001 -24.999s-53.167 -10.833 -79.5 -13.5s-50.5 -4 -72.5 -4c-46.667 0 -89.5 5.83301 -128.5 17.5s-76.167 24.667 -111.5 39s-71.166 27.333 -107.499 39
s-74.166 17.5 -113.499 17.5c-48 0 -97.833 -6.83301 -149.5 -20.5s-106.834 -36.834 -165.501 -69.501l41 196c20 14 42.667 26.167 68 36.5s51 18.833 77 25.5s52 11.334 78 14.001s49.667 4 71 4c45.333 0 87.166 -6.16699 125.499 -18.5s75.5 -25.666 111.5 -39.999
s72.5 -27.166 109.5 -38.499s76.5 -17 118.5 -17c48 0 98 6.83301 150 20.5s107.333 36.834 166 69.501z" />
    <glyph glyph-name="sterling" unicode="&#xa3;" horiz-adv-x="1292" 
d="M217 0l127 602h-137l41 189h137l82 393c14.667 69.333 39.5 120.333 74.5 153s89.5 49 163.5 49h638l-55 -264h-477c-20.667 0 -35.667 -4 -45 -12s-16.333 -22.333 -21 -43l-57 -276h451l-41 -189h-451l-69 -332h673l-57 -270h-977z" />
    <glyph glyph-name="yen" unicode="&#xa5;" horiz-adv-x="1180" 
d="M774 186l-39 -186h-293l39 186h-407l30 142h408l29 137h-408l31 143h405l6 37l-249 741h292l154 -538l389 538h277l-568 -741l-6 -37h410l-31 -143h-409l-29 -137h409l-30 -142h-410z" />
    <glyph glyph-name="dieresis" unicode="&#xa8;" horiz-adv-x="1024" 
 />
    <glyph glyph-name="copyright" unicode="&#xa9;" horiz-adv-x="1401" 
d="M387 0c-87.333 0 -151.164 13.999 -191.497 41.999s-60.5 74.667 -60.5 140c0 30 4 65.667 12 107l172 809c11.333 53.333 26.5 98 45.5 134s42.833 65.667 71.5 89s63.167 40 103.5 50s87.166 15 140.499 15h623c86 0 149 -13.833 189 -41.5s60 -74.5 60 -140.5
c0 -30 -4 -65.333 -12 -106l-172 -809c-10.667 -53.333 -25.334 -98.166 -44.001 -134.499s-42.334 -66 -71.001 -89s-63 -39.667 -103 -50s-86.667 -15.5 -140 -15.5h-623zM1364 1120c1.33301 6.66699 2.33398 13.499 3.00098 20.499s1 13.833 1 20.5
c0 26 -7.16699 44.167 -21.5 54.5s-35.833 15.5 -64.5 15.5h-645c-38 0 -67 -8.16699 -87 -24.5s-34 -45.166 -42 -86.499l-182 -854c-2.66699 -8 -4 -15.5 -4 -22.5v-20.5c0 -46 28.667 -69 86 -69h645c35.333 0 63.166 8.5 83.499 25.5s35.5 45.833 45.5 86.5z
M705.003 427.998c-36 0 -61.501 6.16699 -76.501 18.5s-22.5 31.5 -22.5 57.5v20.5c0 7 1.33301 13.833 4 20.5l68 315c8 40 23.333 69.5 46 88.5s55 28.5 97 28.5h271l-33 -150h-180c-23.333 0 -37.666 -13 -42.999 -39l-35 -170c-1.33301 -4 -2 -8.66699 -2 -14
c0 -13.333 9.33301 -20 28 -20h183l-33 -156h-272z" />
    <glyph glyph-name="registered" unicode="&#xae;" horiz-adv-x="1401" 
d="M387 0c-87.333 0 -151.164 13.999 -191.497 41.999s-60.5 74.667 -60.5 140c0 30 4 65.667 12 107l172 809c11.333 53.333 26.5 98 45.5 134s42.833 65.667 71.5 89s63.167 40 103.5 50s87.166 15 140.499 15h623c86 0 149 -13.833 189 -41.5s60 -74.5 60 -140.5
c0 -30 -4 -65.333 -12 -106l-172 -809c-10.667 -53.333 -25.334 -98.166 -44.001 -134.499s-42.334 -66 -71.001 -89s-63 -39.667 -103 -50s-86.667 -15.5 -140 -15.5h-623zM1364 1120c1.33301 6.66699 2.33398 13.499 3.00098 20.499s1 13.833 1 20.5
c0 26 -7.16699 44.167 -21.5 54.5s-35.833 15.5 -64.5 15.5h-645c-38 0 -67 -8.16699 -87 -24.5s-34 -45.166 -42 -86.499l-182 -854c-2.66699 -8 -4 -15.5 -4 -22.5v-20.5c0 -46 28.667 -69 86 -69h645c35.333 0 63.166 8.5 83.499 25.5s35.5 45.833 45.5 86.5z
M874.003 427.998l30.998 145v9c0 13.333 -11.667 20 -35 20h-137l-37 -174h-157l75 360h158l-12 -63h127c17.333 0 28.833 3 34.5 9s9.83398 14.667 12.501 26l12 55c1.33301 2.66699 2 7.33398 2 14.001c0 12.667 -8.66699 19 -26 19h-295l28 129h387
c52 0 78 -20.667 78 -62c0 -6.66699 -1.33301 -16.667 -4 -30l-24 -121c-7.33301 -31.333 -19.166 -53.5 -35.499 -66.5s-33.833 -20.833 -52.5 -23.5c18.667 -2.66699 34.167 -7.83398 46.5 -15.501s18.5 -19.5 18.5 -35.5c0 -8.66699 -0.666992 -15 -2 -19l-37 -176h-156z
" />
    <glyph glyph-name="degree" unicode="&#xb0;" horiz-adv-x="772" 
d="M428 944c-36.667 0 -62.834 5.83398 -78.501 17.501s-23.5 31.167 -23.5 58.5c0 13.333 2 29.666 6 48.999l59 277c10 43.333 25.833 74.833 47.5 94.5s55.834 29.5 102.501 29.5h305c38 0 65.167 -6 81.5 -18s24.5 -31.667 24.5 -59c0 -14 -2 -29.667 -6 -47l-59 -277
c-10 -43.333 -26.167 -75 -48.5 -95s-57.5 -30 -105.5 -30h-305zM801 1313c0 2.66699 0.333008 5 1 7s1 4.33301 1 7c0 16.667 -11 25 -33 25h-205c-24.667 0 -39.667 -13 -45 -39l-45 -205c0 -2.66699 -0.333008 -5 -1 -7s-1 -4.33301 -1 -7c0 -16.667 10.333 -25 31 -25
h205c14.667 0 25.5 3 32.5 9s11.833 16 14.5 30z" />
    <glyph glyph-name="plusminus" unicode="&#xb1;" horiz-adv-x="1294" 
d="M594 180l96 447h-444l37 178h444l94 444h180l-94 -444h445l-37 -178h-445l-96 -447h-180zM88 -102l43 204h1077l-43 -204h-1077z" />
    <glyph glyph-name="paragraph" unicode="&#xb6;" horiz-adv-x="1485" 
d="M983 -350l332.001 1558h-285l-332 -1558h-221l332 1558h-197c-22.667 0 -38.834 -3.66699 -48.501 -11s-17.167 -24.666 -22.5 -51.999l-72 -336c-1.33301 -6.66699 -2.33301 -12.167 -3 -16.5s-1 -8.5 -1 -12.5c0 -23.333 16.333 -35 49 -35h111l-41 -188h-187
c-57.333 0 -99.333 11.333 -126 34s-40 57 -40 103c0 26 3 50.667 9 74l88 408c14.667 72 40.5 125 77.5 159s94.5 51 172.5 51h1138l-37 -178h-145l-332 -1558h-219z" />
    <glyph glyph-name="onequarter" unicode="&#xbc;" horiz-adv-x="1780" 
 />
    <glyph glyph-name="onehalf" unicode="&#xbd;" horiz-adv-x="1780" 
 />
    <glyph glyph-name="threequarters" unicode="&#xbe;" horiz-adv-x="1780" 
 />
    <glyph glyph-name=".notdef.106" unicode="&#xc0;" 
d="M954 0l-14 215h-500l-106 -215h-301l721 1386h407l107 -1386h-314zM887 1108l-336 -664h379zM952 1510l-210 361h255l156 -361h-201z" />
    <glyph glyph-name=".notdef.107" unicode="&#xc1;" 
d="M954 0l-14 215h-500l-106 -215h-301l721 1386h407l107 -1386h-314zM887 1108l-336 -664h379zM758 1510l281 358h281l-340 -358h-222z" />
    <glyph glyph-name=".notdef.111" unicode="&#xc2;" 
d="M1134 1509l-120 181l-204 -181h-283l404 370h216l219 -370h-232zM954 0l-14 215h-500l-106 -215h-301l721 1386h407l107 -1386h-314zM887 1108l-336 -664h379z" />
    <glyph glyph-name=".notdef.109" unicode="&#xc3;" 
d="M954 0l-14 215h-500l-106 -215h-301l721 1386h407l107 -1386h-314zM887 1108l-336 -664h379zM1374 1596c-30.667 -30.667 -66.3301 -52.168 -106.997 -64.501s-77.334 -18.5 -110.001 -18.5c-36.667 0 -69.667 6 -99 18s-56.833 25.5 -82.5 40.5
s-50.834 28.5 -75.501 40.5s-50.667 18 -78 18c-36 0 -74.167 -6.83301 -114.5 -20.5s-79.5 -38.167 -117.5 -73.5l34 214c32.667 30.667 69.167 52.334 109.5 65.001s77.166 19 110.499 19c30.667 0 60.334 -6.33301 89.001 -19s56.5 -26 83.5 -40l80 -40.5
c26.333 -13 52.833 -19.5 79.5 -19.5c40.667 0 79.667 6.66699 117 20s76.666 38 117.999 74z" />
    <glyph glyph-name=".notdef.123" unicode="&#xc8;" horiz-adv-x="1247" 
d="M104 0l215 1014h322l-49 -226h510l-47 -221h-510l-62 -291h707l-57 -276h-1029zM340 1116l57 270h1028l-57 -270h-1028zM863 1510l-210 361h255l156 -361h-201z" />
    <glyph glyph-name=".notdef.124" unicode="&#xc9;" horiz-adv-x="1247" 
d="M104 0l215 1014h322l-49 -226h510l-47 -221h-510l-62 -291h707l-57 -276h-1029zM340 1116l57 270h1028l-57 -270h-1028zM708 1510l281 358h281l-340 -358h-222z" />
    <glyph glyph-name=".notdef.128" unicode="&#xca;" horiz-adv-x="1247" 
d="M104 0l215 1014h322l-49 -226h510l-47 -221h-510l-62 -291h707l-57 -276h-1029zM340 1116l57 270h1028l-57 -270h-1028zM1106 1510l-120 181l-204 -181h-283l404 370h216l219 -370h-232z" />
    <glyph glyph-name=".notdef.104" unicode="&#xcc;" horiz-adv-x="553" 
d="M119 0l293 1386h311l-293 -1386h-311zM523 1510l-210 361h255l156 -361h-201z" />
    <glyph glyph-name=".notdef.103" unicode="&#xcd;" horiz-adv-x="553" 
d="M119 0l293 1386h311l-293 -1386h-311zM438 1510l281 358h281l-340 -358h-222z" />
    <glyph glyph-name=".notdef.099" unicode="&#xd2;" horiz-adv-x="1368" 
d="M340 0c-69.333 0 -119.499 12.332 -150.499 36.999s-46.5 62.334 -46.5 113.001c0 25.333 4.33301 56 13 92l190 903c18 82 48.167 142.667 90.5 182s107.833 59 196.5 59h690c69.333 0 119.166 -12.167 149.499 -36.5s45.5 -62.5 45.5 -114.5
c0 -14 -1.16699 -28.5 -3.5 -43.5l-7.5 -46.5l-190 -903c-18 -82 -48.5 -142.833 -91.5 -182.5s-108.167 -59.5 -195.5 -59.5h-690zM1174 1036c1.33301 7.33301 2.33301 13.667 3 19s1 10 1 14c0 31.333 -24 47 -72 47h-387c-27.333 0 -46.833 -5.5 -58.5 -16.5
s-20.834 -32.167 -27.501 -63.5l-148 -690c-2.66699 -13.333 -4 -22.333 -4 -27c0 -28.667 20 -43 60 -43h387c32.667 0 55.834 5.5 69.501 16.5s23.167 28.833 28.5 53.5zM934.001 1510l-210 361h255l156 -361h-201z" />
    <glyph glyph-name=".notdef.098" unicode="&#xd3;" horiz-adv-x="1368" 
d="M340 0c-69.333 0 -119.499 12.332 -150.499 36.999s-46.5 62.334 -46.5 113.001c0 25.333 4.33301 56 13 92l190 903c18 82 48.167 142.667 90.5 182s107.833 59 196.5 59h690c69.333 0 119.166 -12.167 149.499 -36.5s45.5 -62.5 45.5 -114.5
c0 -14 -1.16699 -28.5 -3.5 -43.5l-7.5 -46.5l-190 -903c-18 -82 -48.5 -142.833 -91.5 -182.5s-108.167 -59.5 -195.5 -59.5h-690zM1174 1036c1.33301 7.33301 2.33301 13.667 3 19s1 10 1 14c0 31.333 -24 47 -72 47h-387c-27.333 0 -46.833 -5.5 -58.5 -16.5
s-20.834 -32.167 -27.501 -63.5l-148 -690c-2.66699 -13.333 -4 -22.333 -4 -27c0 -28.667 20 -43 60 -43h387c32.667 0 55.834 5.5 69.501 16.5s23.167 28.833 28.5 53.5zM770.001 1510l281 358h281l-340 -358h-222z" />
    <glyph glyph-name=".notdef.094" unicode="&#xd4;" horiz-adv-x="1368" 
d="M340 0c-69.333 0 -119.499 12.332 -150.499 36.999s-46.5 62.334 -46.5 113.001c0 25.333 4.33301 56 13 92l190 903c18 82 48.167 142.667 90.5 182s107.833 59 196.5 59h690c69.333 0 119.166 -12.167 149.499 -36.5s45.5 -62.5 45.5 -114.5
c0 -14 -1.16699 -28.5 -3.5 -43.5l-7.5 -46.5l-190 -903c-18 -82 -48.5 -142.833 -91.5 -182.5s-108.167 -59.5 -195.5 -59.5h-690zM1174 1036c1.33301 7.33301 2.33301 13.667 3 19s1 10 1 14c0 31.333 -24 47 -72 47h-387c-27.333 0 -46.833 -5.5 -58.5 -16.5
s-20.834 -32.167 -27.501 -63.5l-148 -690c-2.66699 -13.333 -4 -22.333 -4 -27c0 -28.667 20 -43 60 -43h387c32.667 0 55.834 5.5 69.501 16.5s23.167 28.833 28.5 53.5zM1173 1510l-120 181l-204 -181h-283l404 370h216l219 -370h-232z" />
    <glyph glyph-name=".notdef.096" unicode="&#xd5;" horiz-adv-x="1368" 
d="M340 0c-69.333 0 -119.499 12.332 -150.499 36.999s-46.5 62.334 -46.5 113.001c0 25.333 4.33301 56 13 92l190 903c18 82 48.167 142.667 90.5 182s107.833 59 196.5 59h690c69.333 0 119.166 -12.167 149.499 -36.5s45.5 -62.5 45.5 -114.5
c0 -14 -1.16699 -28.5 -3.5 -43.5l-7.5 -46.5l-190 -903c-18 -82 -48.5 -142.833 -91.5 -182.5s-108.167 -59.5 -195.5 -59.5h-690zM1174 1036c1.33301 7.33301 2.33301 13.667 3 19s1 10 1 14c0 31.333 -24 47 -72 47h-387c-27.333 0 -46.833 -5.5 -58.5 -16.5
s-20.834 -32.167 -27.501 -63.5l-148 -690c-2.66699 -13.333 -4 -22.333 -4 -27c0 -28.667 20 -43 60 -43h387c32.667 0 55.834 5.5 69.501 16.5s23.167 28.833 28.5 53.5zM1374 1596c-30.667 -30.667 -66.3301 -52.168 -106.997 -64.501s-77.334 -18.5 -110.001 -18.5
c-36.667 0 -69.667 6 -99 18s-56.833 25.5 -82.5 40.5s-50.834 28.5 -75.501 40.5s-50.667 18 -78 18c-36 0 -74.167 -6.83301 -114.5 -20.5s-79.5 -38.167 -117.5 -73.5l34 214c32.667 30.667 69.167 52.334 109.5 65.001s77.166 19 110.499 19
c30.667 0 60.334 -6.33301 89.001 -19s56.5 -26 83.5 -40l80 -40.5c26.333 -13 52.833 -19.5 79.5 -19.5c40.667 0 79.667 6.66699 117 20s76.666 38 117.999 74z" />
    <glyph glyph-name=".notdef.088" unicode="&#xd9;" horiz-adv-x="1382" 
d="M346 0c-70.667 0 -120.998 12.333 -150.998 37s-45 63 -45 115c0 13.333 0.666992 27.5 2 42.5s4 30.833 8 47.5l241 1144h312l-219 -1036c-4.66699 -16 -7 -28.333 -7 -37c0 -14.667 4.83301 -24.5 14.5 -29.5s25.5 -7.5 47.5 -7.5h409c27.333 0 47.166 4.5 59.499 13.5
s22.166 29.167 29.499 60.5l219 1036h299l-242 -1144c-18 -82 -48.5 -142.833 -91.5 -182.5s-108.167 -59.5 -195.5 -59.5h-690zM941.002 1510l-210 361h255l156 -361h-201z" />
    <glyph glyph-name=".notdef.087" unicode="&#xda;" horiz-adv-x="1382" 
d="M346 0c-70.667 0 -120.998 12.333 -150.998 37s-45 63 -45 115c0 13.333 0.666992 27.5 2 42.5s4 30.833 8 47.5l241 1144h312l-219 -1036c-4.66699 -16 -7 -28.333 -7 -37c0 -14.667 4.83301 -24.5 14.5 -29.5s25.5 -7.5 47.5 -7.5h409c27.333 0 47.166 4.5 59.499 13.5
s22.166 29.167 29.499 60.5l219 1036h299l-242 -1144c-18 -82 -48.5 -142.833 -91.5 -182.5s-108.167 -59.5 -195.5 -59.5h-690zM770.002 1510l281 358h281l-340 -358h-222z" />
    <glyph glyph-name=".notdef.070" unicode="&#xdd;" horiz-adv-x="1264" 
d="M475 0l121 571l-277 815h326l170 -546l402 546h311l-621 -815l-121 -571h-311zM742 1510l281 358h281l-340 -358h-222z" />
    <glyph glyph-name=".notdef.066" unicode="&#xe0;" horiz-adv-x="1290" 
d="M283 0c-52 0 -89.667 9.83398 -113 29.501s-35 49.5 -35 89.5c0 18.667 3.33301 44 10 76l52 245c8 38.667 17.5 70.834 28.5 96.501s24.667 46.167 41 61.5s36 26 59 32s51.167 9 84.5 9h526l-37 -176h-377c-18.667 0 -32.167 -3.5 -40.5 -10.5
s-14.5 -21.167 -18.5 -42.5l-23 -109c-1.33301 -6.66699 -2.33301 -12 -3 -16s-1 -8.33301 -1 -13c0 -17.333 13 -26 39 -26h479l109 508c1.33301 5.33301 2 12.666 2 21.999c0 11.333 -3.5 20 -10.5 26s-19.833 9 -38.5 9h-703l47 225h848c60 0 102.333 -9.83301 127 -29.5
s37 -50.834 37 -93.501c0 -18.667 -3.33301 -45 -10 -79l-176 -834h-903zM889 1166l-210 361h255l156 -361h-201z" />
    <glyph glyph-name=".notdef.065" unicode="&#xe1;" horiz-adv-x="1290" 
d="M283 0c-52 0 -89.667 9.83398 -113 29.501s-35 49.5 -35 89.5c0 18.667 3.33301 44 10 76l52 245c8 38.667 17.5 70.834 28.5 96.501s24.667 46.167 41 61.5s36 26 59 32s51.167 9 84.5 9h526l-37 -176h-377c-18.667 0 -32.167 -3.5 -40.5 -10.5
s-14.5 -21.167 -18.5 -42.5l-23 -109c-1.33301 -6.66699 -2.33301 -12 -3 -16s-1 -8.33301 -1 -13c0 -17.333 13 -26 39 -26h479l109 508c1.33301 5.33301 2 12.666 2 21.999c0 11.333 -3.5 20 -10.5 26s-19.833 9 -38.5 9h-703l47 225h848c60 0 102.333 -9.83301 127 -29.5
s37 -50.834 37 -93.501c0 -18.667 -3.33301 -45 -10 -79l-176 -834h-903zM683 1166l281 358h281l-340 -358h-222z" />
    <glyph glyph-name=".notdef.061" unicode="&#xe2;" horiz-adv-x="1290" 
d="M283 0c-52 0 -89.667 9.83398 -113 29.501s-35 49.5 -35 89.5c0 18.667 3.33301 44 10 76l52 245c8 38.667 17.5 70.834 28.5 96.501s24.667 46.167 41 61.5s36 26 59 32s51.167 9 84.5 9h526l-37 -176h-377c-18.667 0 -32.167 -3.5 -40.5 -10.5
s-14.5 -21.167 -18.5 -42.5l-23 -109c-1.33301 -6.66699 -2.33301 -12 -3 -16s-1 -8.33301 -1 -13c0 -17.333 13 -26 39 -26h479l109 508c1.33301 5.33301 2 12.666 2 21.999c0 11.333 -3.5 20 -10.5 26s-19.833 9 -38.5 9h-703l47 225h848c60 0 102.333 -9.83301 127 -29.5
s37 -50.834 37 -93.501c0 -18.667 -3.33301 -45 -10 -79l-176 -834h-903zM1076 1166l-120 181l-204 -181h-283l404 370h216l219 -370h-232z" />
    <glyph glyph-name=".notdef.063" unicode="&#xe3;" horiz-adv-x="1290" 
d="M283 0c-52 0 -89.667 9.83398 -113 29.501s-35 49.5 -35 89.5c0 18.667 3.33301 44 10 76l52 245c8 38.667 17.5 70.834 28.5 96.501s24.667 46.167 41 61.5s36 26 59 32s51.167 9 84.5 9h526l-37 -176h-377c-18.667 0 -32.167 -3.5 -40.5 -10.5
s-14.5 -21.167 -18.5 -42.5l-23 -109c-1.33301 -6.66699 -2.33301 -12 -3 -16s-1 -8.33301 -1 -13c0 -17.333 13 -26 39 -26h479l109 508c1.33301 5.33301 2 12.666 2 21.999c0 11.333 -3.5 20 -10.5 26s-19.833 9 -38.5 9h-703l47 225h848c60 0 102.333 -9.83301 127 -29.5
s37 -50.834 37 -93.501c0 -18.667 -3.33301 -45 -10 -79l-176 -834h-903zM1308 1248c-30.667 -30.667 -66.3301 -52.168 -106.997 -64.501s-77.334 -18.5 -110.001 -18.5c-36.667 0 -69.667 6 -99 18s-56.833 25.5 -82.5 40.5s-50.834 28.5 -75.501 40.5s-50.667 18 -78 18
c-36 0 -74.167 -6.83301 -114.5 -20.5s-79.5 -38.167 -117.5 -73.5l34 214c32.667 30.667 69.167 52.334 109.5 65.001s77.166 19 110.499 19c30.667 0 60.334 -6.33301 89.001 -19s56.5 -26 83.5 -40l80 -40.5c26.333 -13 52.833 -19.5 79.5 -19.5
c40.667 0 79.667 6.66699 117 20s76.666 38 117.999 74z" />
    <glyph glyph-name=".notdef.049" unicode="&#xe8;" horiz-adv-x="1266" 
d="M287 0c-58.667 0 -100.667 9.83203 -126 29.499s-38 50.834 -38 93.501c0 19.333 3.33301 46 10 80l133 631c15.333 69.333 40.333 120.333 75 153s89.667 49 165 49h700c52 0 89.333 -9.83301 112 -29.5s34 -49.167 34 -88.5c0 -24.667 -3 -50 -9 -76l-86 -408h-690
l35 172h418l31 139c1.33301 7.33301 2 16.333 2 27s-3.16699 18.167 -9.5 22.5s-17.5 6.5 -33.5 6.5h-412c-23.333 0 -39 -3.83301 -47 -11.5s-15 -23.167 -21 -46.5l-96 -446c-1.33301 -6.66699 -2.33301 -12.5 -3 -17.5s-1 -9.5 -1 -13.5c0 -12 3.5 -20 10.5 -24
s19.167 -6 36.5 -6h699l-50 -236h-839zM825 1163l-210 361h255l156 -361h-201z" />
    <glyph glyph-name=".notdef.048" unicode="&#xe9;" horiz-adv-x="1266" 
d="M287 0c-58.667 0 -100.667 9.83203 -126 29.499s-38 50.834 -38 93.501c0 19.333 3.33301 46 10 80l133 631c15.333 69.333 40.333 120.333 75 153s89.667 49 165 49h700c52 0 89.333 -9.83301 112 -29.5s34 -49.167 34 -88.5c0 -24.667 -3 -50 -9 -76l-86 -408h-690
l35 172h418l31 139c1.33301 7.33301 2 16.333 2 27s-3.16699 18.167 -9.5 22.5s-17.5 6.5 -33.5 6.5h-412c-23.333 0 -39 -3.83301 -47 -11.5s-15 -23.167 -21 -46.5l-96 -446c-1.33301 -6.66699 -2.33301 -12.5 -3 -17.5s-1 -9.5 -1 -13.5c0 -12 3.5 -20 10.5 -24
s19.167 -6 36.5 -6h699l-50 -236h-839zM661 1166l281 358h281l-340 -358h-222z" />
    <glyph glyph-name=".notdef.044" unicode="&#xea;" horiz-adv-x="1266" 
d="M287 0c-58.667 0 -100.667 9.83203 -126 29.499s-38 50.834 -38 93.501c0 19.333 3.33301 46 10 80l133 631c15.333 69.333 40.333 120.333 75 153s89.667 49 165 49h700c52 0 89.333 -9.83301 112 -29.5s34 -49.167 34 -88.5c0 -24.667 -3 -50 -9 -76l-86 -408h-690
l35 172h418l31 139c1.33301 7.33301 2 16.333 2 27s-3.16699 18.167 -9.5 22.5s-17.5 6.5 -33.5 6.5h-412c-23.333 0 -39 -3.83301 -47 -11.5s-15 -23.167 -21 -46.5l-96 -446c-1.33301 -6.66699 -2.33301 -12.5 -3 -17.5s-1 -9.5 -1 -13.5c0 -12 3.5 -20 10.5 -24
s19.167 -6 36.5 -6h699l-50 -236h-839zM1044 1166l-120 181l-204 -181h-283l404 370h216l219 -370h-232z" />
    <glyph glyph-name=".notdef.038" unicode="&#xec;" horiz-adv-x="518" 
d="M115 0l219 1036h287l-220 -1036h-286zM422 1166l-210 361h255l156 -361h-201z" />
    <glyph glyph-name=".notdef.037" unicode="&#xed;" horiz-adv-x="518" 
d="M115 0l219 1036h287l-220 -1036h-286zM346 1163l281 358h281l-340 -358h-222z" />
    <glyph glyph-name=".notdef.033" unicode="&#xf2;" horiz-adv-x="1296" 
d="M295 0c-57.333 0 -98.667 9.83301 -124 29.5s-38 50.834 -38 93.501c0 19.333 3.33301 46 10 80l133 631c15.333 69.333 40.333 120.333 75 153s89 49 163 49h705c60 0 102.167 -9.83301 126.5 -29.5s36.5 -50.834 36.5 -93.501c0 -18.667 -3.33301 -45 -10 -79
l-133 -631c-14.667 -70 -39.5 -121.333 -74.5 -154s-90.167 -49 -165.5 -49h-704zM1063 731c2.66699 14 4 22.332 4 24.999c0 21.333 -18.333 32 -55 32h-406c-22 0 -37.333 -3.66699 -46 -11s-15 -22.666 -19 -45.999l-88 -422c-1.33301 -5.33301 -2.33301 -10 -3 -14
s-1 -8 -1 -12c0 -19.333 15 -29 45 -29h405c24.667 0 42.5 4.16699 53.5 12.5s18.5 22.5 22.5 42.5zM850.999 1166l-210 361h255l156 -361h-201z" />
    <glyph glyph-name=".notdef.032" unicode="&#xf3;" horiz-adv-x="1296" 
d="M295 0c-57.333 0 -98.667 9.83301 -124 29.5s-38 50.834 -38 93.501c0 19.333 3.33301 46 10 80l133 631c15.333 69.333 40.333 120.333 75 153s89 49 163 49h705c60 0 102.167 -9.83301 126.5 -29.5s36.5 -50.834 36.5 -93.501c0 -18.667 -3.33301 -45 -10 -79
l-133 -631c-14.667 -70 -39.5 -121.333 -74.5 -154s-90.167 -49 -165.5 -49h-704zM1063 731c2.66699 14 4 22.332 4 24.999c0 21.333 -18.333 32 -55 32h-406c-22 0 -37.333 -3.66699 -46 -11s-15 -22.666 -19 -45.999l-88 -422c-1.33301 -5.33301 -2.33301 -10 -3 -14
s-1 -8 -1 -12c0 -19.333 15 -29 45 -29h405c24.667 0 42.5 4.16699 53.5 12.5s18.5 22.5 22.5 42.5zM690.999 1166l281 358h281l-340 -358h-222z" />
    <glyph glyph-name=".notdef.028" unicode="&#xf4;" horiz-adv-x="1296" 
d="M295 0c-57.333 0 -98.667 9.83301 -124 29.5s-38 50.834 -38 93.501c0 19.333 3.33301 46 10 80l133 631c15.333 69.333 40.333 120.333 75 153s89 49 163 49h705c60 0 102.167 -9.83301 126.5 -29.5s36.5 -50.834 36.5 -93.501c0 -18.667 -3.33301 -45 -10 -79
l-133 -631c-14.667 -70 -39.5 -121.333 -74.5 -154s-90.167 -49 -165.5 -49h-704zM1063 731c2.66699 14 4 22.332 4 24.999c0 21.333 -18.333 32 -55 32h-406c-22 0 -37.333 -3.66699 -46 -11s-15 -22.666 -19 -45.999l-88 -422c-1.33301 -5.33301 -2.33301 -10 -3 -14
s-1 -8 -1 -12c0 -19.333 15 -29 45 -29h405c24.667 0 42.5 4.16699 53.5 12.5s18.5 22.5 22.5 42.5zM1076 1166l-120 181l-204 -181h-283l404 370h216l219 -370h-232z" />
    <glyph glyph-name=".notdef.030" unicode="&#xf5;" horiz-adv-x="1296" 
d="M295 0c-57.333 0 -98.667 9.83301 -124 29.5s-38 50.834 -38 93.501c0 19.333 3.33301 46 10 80l133 631c15.333 69.333 40.333 120.333 75 153s89 49 163 49h705c60 0 102.167 -9.83301 126.5 -29.5s36.5 -50.834 36.5 -93.501c0 -18.667 -3.33301 -45 -10 -79
l-133 -631c-14.667 -70 -39.5 -121.333 -74.5 -154s-90.167 -49 -165.5 -49h-704zM1063 731c2.66699 14 4 22.332 4 24.999c0 21.333 -18.333 32 -55 32h-406c-22 0 -37.333 -3.66699 -46 -11s-15 -22.666 -19 -45.999l-88 -422c-1.33301 -5.33301 -2.33301 -10 -3 -14
s-1 -8 -1 -12c0 -19.333 15 -29 45 -29h405c24.667 0 42.5 4.16699 53.5 12.5s18.5 22.5 22.5 42.5zM1308 1248c-30.667 -30.667 -66.3301 -52.168 -106.997 -64.501s-77.334 -18.5 -110.001 -18.5c-36.667 0 -69.667 6 -99 18s-56.833 25.5 -82.5 40.5
s-50.834 28.5 -75.501 40.5s-50.667 18 -78 18c-36 0 -74.167 -6.83301 -114.5 -20.5s-79.5 -38.167 -117.5 -73.5l34 214c32.667 30.667 69.167 52.334 109.5 65.001s77.166 19 110.499 19c30.667 0 60.334 -6.33301 89.001 -19s56.5 -26 83.5 -40l80 -40.5
c26.333 -13 52.833 -19.5 79.5 -19.5c40.667 0 79.667 6.66699 117 20s76.666 38 117.999 74z" />
    <glyph glyph-name="divide" unicode="&#xf7;" horiz-adv-x="1706" 
 />
    <glyph glyph-name=".notdef.022" unicode="&#xf9;" horiz-adv-x="1311" 
d="M928 0l22.001 111c-26 -40 -55 -68.5 -87 -85.5s-69.667 -25.5 -113 -25.5h-451c-54.667 0 -95.334 9.5 -122.001 28.5s-40 51.167 -40 96.5c0 20.667 3.33301 46.667 10 78l177 833h286l-155 -731c-2.66699 -13.333 -4 -22 -4 -26c0 -22 16.333 -33 49 -33h411
c22 0 37.833 4 47.5 12s17.167 23.667 22.5 47l156 731h286l-219 -1036h-276zM830.001 1166l-210 361h255l156 -361h-201z" />
    <glyph glyph-name=".notdef.021" unicode="&#xfa;" horiz-adv-x="1311" 
d="M928 0l22.001 111c-26 -40 -55 -68.5 -87 -85.5s-69.667 -25.5 -113 -25.5h-451c-54.667 0 -95.334 9.5 -122.001 28.5s-40 51.167 -40 96.5c0 20.667 3.33301 46.667 10 78l177 833h286l-155 -731c-2.66699 -13.333 -4 -22 -4 -26c0 -22 16.333 -33 49 -33h411
c22 0 37.833 4 47.5 12s17.167 23.667 22.5 47l156 731h286l-219 -1036h-276zM704.001 1166l281 358h281l-340 -358h-222z" />
    <glyph glyph-name=".notdef.004" unicode="&#xfd;" horiz-adv-x="1249" 
d="M31 -434l52.9971 247.998h688c23.333 0 39.5 4 48.5 12s16.167 23.667 21.5 47l28 127h-589c-57.333 0 -98.666 9.83301 -123.999 29.5s-38 50.834 -38 93.501c0 19.333 3.33301 46 10 80l176 833h287l-158 -743c-1.33301 -5.33301 -2.33301 -10.166 -3 -14.499
s-1 -8.5 -1 -12.5c0 -22 16.333 -33 49 -33h441l170 803h288l-270 -1267c-15.333 -70 -40.666 -121.333 -75.999 -154s-90.666 -49 -165.999 -49h-835zM671.997 1166l281 358h281l-340 -358h-222z" />
    <glyph glyph-name=".notdef.117" unicode="&#x102;" 
d="M954 0l-14 215h-500l-106 -215h-301l721 1386h407l107 -1386h-314zM887 1108l-336 -664h379zM1421 1828c-20.667 -53.333 -39.001 -97.998 -55.001 -133.998s-32.167 -65.667 -48.5 -89s-33.833 -41.166 -52.5 -53.499s-41 -21.333 -67 -27
s-56.667 -8.83398 -92 -9.50098s-77.666 -1 -126.999 -1c-58.667 0 -108.5 1.16699 -149.5 3.5s-74 11 -99 26s-42.5 38.5 -52.5 70.5s-13 77.667 -9 137l9 75h165l-3 -35c-6 -31.333 -6.66699 -54.5 -2 -69.5s14 -25.167 28 -30.5s32.333 -7.5 55 -6.5s49.667 1.5 81 1.5
c42 0 75.667 0.5 101 1.5s46 5.66699 62 14s29.167 22.166 39.5 41.499s21.5 47.666 33.5 84.999h183z" />
    <glyph glyph-name=".notdef.055" unicode="&#x103;" horiz-adv-x="1290" 
d="M283 0c-52 0 -89.667 9.83398 -113 29.501s-35 49.5 -35 89.5c0 18.667 3.33301 44 10 76l52 245c8 38.667 17.5 70.834 28.5 96.501s24.667 46.167 41 61.5s36 26 59 32s51.167 9 84.5 9h526l-37 -176h-377c-18.667 0 -32.167 -3.5 -40.5 -10.5
s-14.5 -21.167 -18.5 -42.5l-23 -109c-1.33301 -6.66699 -2.33301 -12 -3 -16s-1 -8.33301 -1 -13c0 -17.333 13 -26 39 -26h479l109 508c1.33301 5.33301 2 12.666 2 21.999c0 11.333 -3.5 20 -10.5 26s-19.833 9 -38.5 9h-703l47 225h848c60 0 102.333 -9.83301 127 -29.5
s37 -50.834 37 -93.501c0 -18.667 -3.33301 -45 -10 -79l-176 -834h-903zM1342 1481c-20.667 -53.333 -39.001 -97.998 -55.001 -133.998s-32.167 -65.667 -48.5 -89s-33.833 -41.166 -52.5 -53.499s-41 -21.333 -67 -27s-56.667 -8.83398 -92 -9.50098
s-77.666 -1 -126.999 -1c-58.667 0 -108.5 1.16699 -149.5 3.5s-74 11 -99 26s-42.5 38.5 -52.5 70.5s-13 77.667 -9 137l9 75h165l-3 -35c-6 -31.333 -6.66699 -54.5 -2 -69.5s14 -25.167 28 -30.5s32.333 -7.5 55 -6.5s49.667 1.5 81 1.5c42 0 75.667 0.5 101 1.5
s46 5.66699 62 14s29.167 22.166 39.5 41.499s21.5 47.666 33.5 84.999h183z" />
    <glyph glyph-name="Ccaron" unicode="&#x10c;" horiz-adv-x="1274" 
 />
    <glyph glyph-name="ccaron" unicode="&#x10d;" horiz-adv-x="922" 
 />
    <glyph glyph-name="Dslash" unicode="&#x110;" horiz-adv-x="1384" 
d="M115 0l214.999 1012h307l-158 -742h436c72.667 0 118.667 44.333 138 133l123 578c4 16.667 6 32.334 6 47.001c0 57.333 -29.333 86 -88 86h-744l58 272h800c202 0 303 -81.667 303 -245c0 -34 -4 -70.333 -12 -109l-145 -678c-24.667 -116 -73.167 -204 -145.5 -264
s-170.166 -90 -293.499 -90h-800zM116.999 549.999l61 259h677l-63 -259h-675z" />
    <glyph glyph-name="dcroat" unicode="&#x111;" horiz-adv-x="1286" 
d="M295 0c-57.333 0 -98.667 9.83105 -124 29.498s-38 50.834 -38 93.501c0 19.333 3.33301 46 10 80l133 631c15.333 69.333 42.5 120.333 81.5 153s91.167 49 156.5 49h490l-54 -248h-342c-22 0 -37.333 -3.66699 -46 -11s-15.667 -22.666 -21 -45.999l-88 -420
c-2.66699 -13.333 -4 -22 -4 -26c0 -20.667 15.667 -31 47 -31h444l258 1216h289l-311 -1470h-881zM853.999 1130l57 239h681l-59 -239h-679z" />
    <glyph glyph-name=".notdef.101" unicode="&#x128;" horiz-adv-x="553" 
d="M119 0l293 1386h311l-293 -1386h-311zM986 1596c-30.667 -30.667 -66.3301 -52.168 -106.997 -64.501s-77.334 -18.5 -110.001 -18.5c-36.667 0 -69.667 6 -99 18s-56.833 25.5 -82.5 40.5s-50.834 28.5 -75.501 40.5s-50.667 18 -78 18
c-36 0 -74.167 -6.83301 -114.5 -20.5s-79.5 -38.167 -117.5 -73.5l34 214c32.667 30.667 69.167 52.334 109.5 65.001s77.166 19 110.499 19c30.667 0 60.334 -6.33301 89.001 -19s56.5 -26 83.5 -40l80 -40.5c26.333 -13 52.833 -19.5 79.5 -19.5
c40.667 0 79.667 6.66699 117 20s76.666 38 117.999 74z" />
    <glyph glyph-name=".notdef.035" unicode="&#x129;" horiz-adv-x="518" 
d="M115 0l219 1036h287l-220 -1036h-286zM885 1249c-30.667 -30.667 -66.3301 -52.168 -106.997 -64.501s-77.334 -18.5 -110.001 -18.5c-36.667 0 -69.667 6 -99 18s-56.833 25.5 -82.5 40.5s-50.834 28.5 -75.501 40.5s-50.667 18 -78 18
c-36 0 -74.167 -6.83301 -114.5 -20.5s-79.5 -38.167 -117.5 -73.5l34 214c32.667 30.667 69.167 52.334 109.5 65.001s77.166 19 110.499 19c30.667 0 60.334 -6.33301 89.001 -19s56.5 -26 83.5 -40l80 -40.5c26.333 -13 52.833 -19.5 79.5 -19.5
c40.667 0 79.667 6.66699 117 20s76.666 38 117.999 74z" />
    <glyph glyph-name=".notdef.085" unicode="&#x168;" horiz-adv-x="1382" 
d="M346 0c-70.667 0 -120.998 12.333 -150.998 37s-45 63 -45 115c0 13.333 0.666992 27.5 2 42.5s4 30.833 8 47.5l241 1144h312l-219 -1036c-4.66699 -16 -7 -28.333 -7 -37c0 -14.667 4.83301 -24.5 14.5 -29.5s25.5 -7.5 47.5 -7.5h409c27.333 0 47.166 4.5 59.499 13.5
s22.166 29.167 29.499 60.5l219 1036h299l-242 -1144c-18 -82 -48.5 -142.833 -91.5 -182.5s-108.167 -59.5 -195.5 -59.5h-690zM1391 1596c-30.667 -30.667 -66.3301 -52.168 -106.997 -64.501s-77.334 -18.5 -110.001 -18.5c-36.667 0 -69.667 6 -99 18
s-56.833 25.5 -82.5 40.5s-50.834 28.5 -75.501 40.5s-50.667 18 -78 18c-36 0 -74.167 -6.83301 -114.5 -20.5s-79.5 -38.167 -117.5 -73.5l34 214c32.667 30.667 69.167 52.334 109.5 65.001s77.166 19 110.499 19c30.667 0 60.334 -6.33301 89.001 -19s56.5 -26 83.5 -40
l80 -40.5c26.333 -13 52.833 -19.5 79.5 -19.5c40.667 0 79.667 6.66699 117 20s76.666 38 117.999 74z" />
    <glyph glyph-name=".notdef.019" unicode="&#x169;" horiz-adv-x="1311" 
d="M928 0l22.001 111c-26 -40 -55 -68.5 -87 -85.5s-69.667 -25.5 -113 -25.5h-451c-54.667 0 -95.334 9.5 -122.001 28.5s-40 51.167 -40 96.5c0 20.667 3.33301 46.667 10 78l177 833h286l-155 -731c-2.66699 -13.333 -4 -22 -4 -26c0 -22 16.333 -33 49 -33h411
c22 0 37.833 4 47.5 12s17.167 23.667 22.5 47l156 731h286l-219 -1036h-276zM1270 1249c-30.667 -30.667 -66.3301 -52.168 -106.997 -64.501s-77.334 -18.5 -110.001 -18.5c-36.667 0 -69.667 6 -99 18s-56.833 25.5 -82.5 40.5s-50.834 28.5 -75.501 40.5
s-50.667 18 -78 18c-36 0 -74.167 -6.83301 -114.5 -20.5s-79.5 -38.167 -117.5 -73.5l34 214c32.667 30.667 69.167 52.334 109.5 65.001s77.166 19 110.499 19c30.667 0 60.334 -6.33301 89.001 -19s56.5 -26 83.5 -40l80 -40.5c26.333 -13 52.833 -19.5 79.5 -19.5
c40.667 0 79.667 6.66699 117 20s76.666 38 117.999 74z" />
    <glyph glyph-name=".notdef.077" unicode="&#x1a0;" horiz-adv-x="1646" 
d="M340 0c-69.333 0 -119.499 12.332 -150.499 36.999s-46.5 62.334 -46.5 113.001c0 25.333 4.33301 56 13 92l190 903c18 82 48.167 142.667 90.5 182s107.833 59 196.5 59h690c69.333 0 119.166 -12.167 149.499 -36.5s45.5 -62.5 45.5 -114.5
c0 -14 -1.16699 -28.5 -3.5 -43.5l-7.5 -46.5l-190 -903c-18 -82 -48.5 -142.833 -91.5 -182.5s-108.167 -59.5 -195.5 -59.5h-690zM1174 1036c1.33301 7.33301 2.33301 13.667 3 19s1 10 1 14c0 31.333 -24 47 -72 47h-387c-27.333 0 -46.833 -5.5 -58.5 -16.5
s-20.834 -32.167 -27.501 -63.5l-148 -690c-2.66699 -13.333 -4 -22.333 -4 -27c0 -28.667 20 -43 60 -43h387c32.667 0 55.834 5.5 69.501 16.5s23.167 28.833 28.5 53.5zM1438 990l208 396h276l-242 -396h-242z" />
    <glyph glyph-name=".notdef.011" unicode="&#x1a1;" horiz-adv-x="1459" 
d="M295 0c-57.333 0 -98.667 9.83301 -124 29.5s-38 50.834 -38 93.501c0 19.333 3.33301 46 10 80l133 631c15.333 69.333 40.333 120.333 75 153s89 49 163 49h705c60 0 102.167 -9.83301 126.5 -29.5s36.5 -50.834 36.5 -93.501c0 -18.667 -3.33301 -45 -10 -79
l-133 -631c-14.667 -70 -39.5 -121.333 -74.5 -154s-90.167 -49 -165.5 -49h-704zM1063 731c2.66699 14 4 22.332 4 24.999c0 21.333 -18.333 32 -55 32h-406c-22 0 -37.333 -3.66699 -46 -11s-15 -22.666 -19 -45.999l-88 -422c-1.33301 -5.33301 -2.33301 -10 -3 -14
s-1 -8 -1 -12c0 -19.333 15 -29 45 -29h405c24.667 0 42.5 4.16699 53.5 12.5s18.5 22.5 22.5 42.5zM1254 637.999l208 396h276l-242 -396h-242z" />
    <glyph glyph-name=".notdef.083" unicode="&#x1af;" horiz-adv-x="1669" 
d="M346 0c-70.667 0 -120.998 12.333 -150.998 37s-45 63 -45 115c0 13.333 0.666992 27.5 2 42.5s4 30.833 8 47.5l241 1144h312l-219 -1036c-4.66699 -16 -7 -28.333 -7 -37c0 -14.667 4.83301 -24.5 14.5 -29.5s25.5 -7.5 47.5 -7.5h409c27.333 0 47.166 4.5 59.499 13.5
s22.166 29.167 29.499 60.5l219 1036h299l-242 -1144c-18 -82 -48.5 -142.833 -91.5 -182.5s-108.167 -59.5 -195.5 -59.5h-690zM1463 990l208 396h276l-242 -396h-242z" />
    <glyph glyph-name=".notdef.017" unicode="&#x1b0;" horiz-adv-x="1499" 
d="M928 0l22.001 111c-26 -40 -55 -68.5 -87 -85.5s-69.667 -25.5 -113 -25.5h-451c-54.667 0 -95.334 9.5 -122.001 28.5s-40 51.167 -40 96.5c0 20.667 3.33301 46.667 10 78l177 833h286l-155 -731c-2.66699 -13.333 -4 -22 -4 -26c0 -22 16.333 -33 49 -33h411
c22 0 37.833 4 47.5 12s17.167 23.667 22.5 47l156 731h286l-219 -1036h-276zM1291 638l208 396h276l-242 -396h-242z" />
    <glyph glyph-name=".notdef.110" unicode="&#x1ea0;" 
d="M954 0l-14 215h-500l-106 -215h-301l721 1386h407l107 -1386h-314zM887 1108l-336 -664h379zM430 -436l65 309h262l-65 -309h-262z" />
    <glyph glyph-name=".notdef.062" unicode="&#x1ea1;" horiz-adv-x="1290" 
d="M283 0c-52 0 -89.667 9.83398 -113 29.501s-35 49.5 -35 89.5c0 18.667 3.33301 44 10 76l52 245c8 38.667 17.5 70.834 28.5 96.501s24.667 46.167 41 61.5s36 26 59 32s51.167 9 84.5 9h526l-37 -176h-377c-18.667 0 -32.167 -3.5 -40.5 -10.5
s-14.5 -21.167 -18.5 -42.5l-23 -109c-1.33301 -6.66699 -2.33301 -12 -3 -16s-1 -8.33301 -1 -13c0 -17.333 13 -26 39 -26h479l109 508c1.33301 5.33301 2 12.666 2 21.999c0 11.333 -3.5 20 -10.5 26s-19.833 9 -38.5 9h-703l47 225h848c60 0 102.333 -9.83301 127 -29.5
s37 -50.834 37 -93.501c0 -18.667 -3.33301 -45 -10 -79l-176 -834h-903zM456 -435.999l65 309h262l-65 -309h-262z" />
    <glyph glyph-name=".notdef.108" unicode="&#x1ea2;" 
d="M954 0l-14 215h-500l-106 -215h-301l721 1386h407l107 -1386h-314zM887 1108l-336 -664h379zM1094 1568c-1.33301 0 -2.49902 -0.99707 -3.49902 -2.99707l-2.5 -5c0 -1.33301 -0.166992 -2.5 -0.5 -3.5s-0.5 -2.16699 -0.5 -3.5c-1.33301 -4 -2.5 -4.83301 -3.5 -2.5
s-2.16699 1.83301 -3.5 -1.5c-2 -6 -3.66699 -12.333 -5 -19l-4 -20h-187l28 107c16 75.333 62.333 113 139 113h21c5.33301 0 9.5 1.83301 12.5 5.5s5.5 8.16699 7.5 13.5c1.33301 7.33301 2.66602 12.666 3.99902 15.999s3 8.66602 5 15.999l2 10
c0.666992 3.33301 1.66699 6.66602 3 9.99902c0 2.66699 0.166992 4.16699 0.5 4.5s0.833008 0.5 1.5 0.5s1.16699 0.166992 1.5 0.5s0.833008 1.83301 1.5 4.5c0 2 0.5 3.66699 1.5 5s1.5 2.66602 1.5 3.99902c-2.66699 -1.33301 -5 -2 -7 -2h-290l32 181h350
c46 0 78.667 -8.33301 98 -25s29 -42.334 29 -77.001c0 -5.33301 -0.166992 -11.5 -0.5 -18.5s-0.833008 -13.5 -1.5 -19.5v-7c0 -1.33301 -0.166992 -2.66602 -0.5 -3.99902s-0.5 -2.66602 -0.5 -3.99902l-36 -137c-10 -46 -27 -80.667 -51 -104s-59.667 -35 -107 -35h-35z
" />
    <glyph glyph-name=".notdef.064" unicode="&#x1ea3;" horiz-adv-x="1290" 
d="M283 0c-52 0 -89.667 9.83398 -113 29.501s-35 49.5 -35 89.5c0 18.667 3.33301 44 10 76l52 245c8 38.667 17.5 70.834 28.5 96.501s24.667 46.167 41 61.5s36 26 59 32s51.167 9 84.5 9h526l-37 -176h-377c-18.667 0 -32.167 -3.5 -40.5 -10.5
s-14.5 -21.167 -18.5 -42.5l-23 -109c-1.33301 -6.66699 -2.33301 -12 -3 -16s-1 -8.33301 -1 -13c0 -17.333 13 -26 39 -26h479l109 508c1.33301 5.33301 2 12.666 2 21.999c0 11.333 -3.5 20 -10.5 26s-19.833 9 -38.5 9h-703l47 225h848c60 0 102.333 -9.83301 127 -29.5
s37 -50.834 37 -93.501c0 -18.667 -3.33301 -45 -10 -79l-176 -834h-903zM991 1221c-1.33301 0 -2.49902 -0.99707 -3.49902 -2.99707l-2.5 -5c0 -1.33301 -0.166992 -2.5 -0.5 -3.5s-0.5 -2.16699 -0.5 -3.5c-1.33301 -4 -2.5 -4.83301 -3.5 -2.5
s-2.16699 1.83301 -3.5 -1.5c-2 -6 -3.66699 -12.333 -5 -19l-4 -20h-187l28 107c16 75.333 62.333 113 139 113h21c5.33301 0 9.5 1.83301 12.5 5.5s5.5 8.16699 7.5 13.5c1.33301 7.33301 2.66602 12.666 3.99902 15.999s3 8.66602 5 15.999l2 10
c0.666992 3.33301 1.66699 6.66602 3 9.99902c0 2.66699 0.166992 4.16699 0.5 4.5s0.833008 0.5 1.5 0.5s1.16699 0.166992 1.5 0.5s0.833008 1.83301 1.5 4.5c0 2 0.5 3.66699 1.5 5s1.5 2.66602 1.5 3.99902c-2.66699 -1.33301 -5 -2 -7 -2h-290l32 181h350
c46 0 78.667 -8.33301 98 -25s29 -42.334 29 -77.001c0 -5.33301 -0.166992 -11.5 -0.5 -18.5s-0.833008 -13.5 -1.5 -19.5v-7c0 -1.33301 -0.166992 -2.66602 -0.5 -3.99902s-0.5 -2.66602 -0.5 -3.99902l-36 -137c-10 -46 -27 -80.667 -51 -104s-59.667 -35 -107 -35h-35z
" />
    <glyph glyph-name=".notdef.113" unicode="&#x1ea4;" 
d="M1134 1509l-120 181l-204 -181h-283l404 370h216l219 -370h-232zM954 0l-14 215h-500l-106 -215h-301l721 1386h407l107 -1386h-314zM887 1108l-336 -664h379zM1285 1780l281 358h281l-340 -358h-222z" />
    <glyph glyph-name=".notdef.059" unicode="&#x1ea5;" horiz-adv-x="1290" 
d="M283 0c-52 0 -89.667 9.83398 -113 29.501s-35 49.5 -35 89.5c0 18.667 3.33301 44 10 76l52 245c8 38.667 17.5 70.834 28.5 96.501s24.667 46.167 41 61.5s36 26 59 32s51.167 9 84.5 9h526l-37 -176h-377c-18.667 0 -32.167 -3.5 -40.5 -10.5
s-14.5 -21.167 -18.5 -42.5l-23 -109c-1.33301 -6.66699 -2.33301 -12 -3 -16s-1 -8.33301 -1 -13c0 -17.333 13 -26 39 -26h479l109 508c1.33301 5.33301 2 12.666 2 21.999c0 11.333 -3.5 20 -10.5 26s-19.833 9 -38.5 9h-703l47 225h848c60 0 102.333 -9.83301 127 -29.5
s37 -50.834 37 -93.501c0 -18.667 -3.33301 -45 -10 -79l-176 -834h-903zM1076 1166l-120 181l-204 -181h-283l404 370h216l219 -370h-232zM1228 1437l281 358h281l-340 -358h-222z" />
    <glyph glyph-name=".notdef.112" unicode="&#x1ea6;" 
d="M1134 1509l-120 181l-204 -181h-283l404 370h216l219 -370h-232zM954 0l-14 215h-500l-106 -215h-301l721 1386h407l107 -1386h-314zM887 1108l-336 -664h379zM1352 1779l-210 361h255l156 -361h-201z" />
    <glyph glyph-name=".notdef.060" unicode="&#x1ea7;" horiz-adv-x="1290" 
d="M283 0c-52 0 -89.667 9.83398 -113 29.501s-35 49.5 -35 89.5c0 18.667 3.33301 44 10 76l52 245c8 38.667 17.5 70.834 28.5 96.501s24.667 46.167 41 61.5s36 26 59 32s51.167 9 84.5 9h526l-37 -176h-377c-18.667 0 -32.167 -3.5 -40.5 -10.5
s-14.5 -21.167 -18.5 -42.5l-23 -109c-1.33301 -6.66699 -2.33301 -12 -3 -16s-1 -8.33301 -1 -13c0 -17.333 13 -26 39 -26h479l109 508c1.33301 5.33301 2 12.666 2 21.999c0 11.333 -3.5 20 -10.5 26s-19.833 9 -38.5 9h-703l47 225h848c60 0 102.333 -9.83301 127 -29.5
s37 -50.834 37 -93.501c0 -18.667 -3.33301 -45 -10 -79l-176 -834h-903zM1076 1166l-120 181l-204 -181h-283l404 370h216l219 -370h-232zM1294 1436l-210 361h255l156 -361h-201z" />
    <glyph glyph-name=".notdef.114" unicode="&#x1ea8;" 
d="M1134 1509l-120 181l-204 -181h-283l404 370h216l219 -370h-232zM954 0l-14 215h-500l-106 -215h-301l721 1386h407l107 -1386h-314zM887 1108l-336 -664h379zM1527 1799c-1.33301 0 -2.49902 -0.99707 -3.49902 -2.99707l-2.5 -5c0 -1.33301 -0.166992 -2.5 -0.5 -3.5
s-0.5 -2.16699 -0.5 -3.5c-1.33301 -4 -2.5 -4.83301 -3.5 -2.5s-2.16699 1.83301 -3.5 -1.5c-2 -6 -3.66699 -12.333 -5 -19l-4 -20h-187l28 107c16 75.333 62.333 113 139 113h21c5.33301 0 9.5 1.83301 12.5 5.5s5.5 8.16699 7.5 13.5
c1.33301 7.33301 2.66602 12.666 3.99902 15.999s3 8.66602 5 15.999l2 10c0.666992 3.33301 1.66699 6.66602 3 9.99902c0 2.66699 0.166992 4.16699 0.5 4.5s0.833008 0.5 1.5 0.5s1.16699 0.166992 1.5 0.5s0.833008 1.83301 1.5 4.5c0 2 0.5 3.66699 1.5 5
s1.5 2.66602 1.5 4c-2.66699 -1.33301 -5 -2 -7 -2h-290l32 181h350c46 0 78.667 -8.33301 98 -25s29 -42.334 29 -77c0 -5.33301 -0.166992 -11.5 -0.5 -18.5s-0.833008 -13.5 -1.5 -19.5v-7c0 -1.33301 -0.166992 -2.66602 -0.5 -4
c-0.333008 -1.33301 -0.5 -2.66602 -0.5 -4l-36 -137c-10 -46 -27 -80.667 -51 -104s-59.667 -35 -107 -35h-35z" />
    <glyph glyph-name=".notdef.058" unicode="&#x1ea9;" horiz-adv-x="1290" 
d="M283 0c-52 0 -89.667 9.83398 -113 29.501s-35 49.5 -35 89.5c0 18.667 3.33301 44 10 76l52 245c8 38.667 17.5 70.834 28.5 96.501s24.667 46.167 41 61.5s36 26 59 32s51.167 9 84.5 9h526l-37 -176h-377c-18.667 0 -32.167 -3.5 -40.5 -10.5
s-14.5 -21.167 -18.5 -42.5l-23 -109c-1.33301 -6.66699 -2.33301 -12 -3 -16s-1 -8.33301 -1 -13c0 -17.333 13 -26 39 -26h479l109 508c1.33301 5.33301 2 12.666 2 21.999c0 11.333 -3.5 20 -10.5 26s-19.833 9 -38.5 9h-703l47 225h848c60 0 102.333 -9.83301 127 -29.5
s37 -50.834 37 -93.501c0 -18.667 -3.33301 -45 -10 -79l-176 -834h-903zM1076 1166l-120 181l-204 -181h-283l404 370h216l219 -370h-232zM1469 1456c-1.33301 0 -2.49902 -0.99707 -3.49902 -2.99707l-2.5 -5c0 -1.33301 -0.166992 -2.5 -0.5 -3.5
s-0.5 -2.16699 -0.5 -3.5c-1.33301 -4 -2.5 -4.83301 -3.5 -2.5s-2.16699 1.83301 -3.5 -1.5c-2 -6 -3.66699 -12.333 -5 -19l-4 -20h-187l28 107c16 75.333 62.333 113 139 113h21c5.33301 0 9.5 1.83301 12.5 5.5s5.5 8.16699 7.5 13.5
c1.33301 7.33301 2.66602 12.666 3.99902 15.999s3 8.66602 5 15.999l2 10c0.666992 3.33301 1.66699 6.66602 3 9.99902c0 2.66699 0.166992 4.16699 0.5 4.5s0.833008 0.5 1.5 0.5s1.16699 0.166992 1.5 0.5s0.833008 1.83301 1.5 4.5c0 2 0.5 3.66699 1.5 5
s1.5 2.66602 1.5 3.99902c-2.66699 -1.33301 -5 -2 -7 -2h-290l32 181h350c46 0 78.667 -8.33301 98 -25s29 -42.334 29 -77.001c0 -5.33301 -0.166992 -11.5 -0.5 -18.5s-0.833008 -13.5 -1.5 -19.5v-7c0 -1.33301 -0.166992 -2.66602 -0.5 -3.99902
s-0.5 -2.66602 -0.5 -3.99902l-36 -137c-10 -46 -27 -80.667 -51 -104s-59.667 -35 -107 -35h-35z" />
    <glyph glyph-name=".notdef.115" unicode="&#x1eaa;" 
d="M1134 1509l-120 181l-204 -181h-283l404 370h216l219 -370h-232zM954 0l-14 215h-500l-106 -215h-301l721 1386h407l107 -1386h-314zM887 1108l-336 -664h379zM1438 2024c-30.667 -30.667 -66.3301 -52.167 -106.997 -64.5s-77.334 -18.5 -110.001 -18.5
c-36.667 0 -69.667 6 -99 18s-56.833 25.5 -82.5 40.5s-50.834 28.5 -75.501 40.5s-50.667 18 -78 18c-36 0 -74.167 -6.83301 -114.5 -20.5s-79.5 -38.167 -117.5 -73.5l34 214c32.667 30.667 69.167 52.334 109.5 65c40.333 12.667 77.166 19 110.499 19
c30.667 0 60.334 -6.33301 89.001 -19s56.5 -26 83.5 -40l80 -40.5c26.333 -13 52.833 -19.5 79.5 -19.5c40.667 0 79.667 6.66699 117 20s76.666 38 117.999 74z" />
    <glyph glyph-name=".notdef.057" unicode="&#x1eab;" horiz-adv-x="1290" 
d="M283 0c-52 0 -89.667 9.83398 -113 29.501s-35 49.5 -35 89.5c0 18.667 3.33301 44 10 76l52 245c8 38.667 17.5 70.834 28.5 96.501s24.667 46.167 41 61.5s36 26 59 32s51.167 9 84.5 9h526l-37 -176h-377c-18.667 0 -32.167 -3.5 -40.5 -10.5
s-14.5 -21.167 -18.5 -42.5l-23 -109c-1.33301 -6.66699 -2.33301 -12 -3 -16s-1 -8.33301 -1 -13c0 -17.333 13 -26 39 -26h479l109 508c1.33301 5.33301 2 12.666 2 21.999c0 11.333 -3.5 20 -10.5 26s-19.833 9 -38.5 9h-703l47 225h848c60 0 102.333 -9.83301 127 -29.5
s37 -50.834 37 -93.501c0 -18.667 -3.33301 -45 -10 -79l-176 -834h-903zM1076 1166l-120 181l-204 -181h-283l404 370h216l219 -370h-232zM1378 1681c-30.667 -30.667 -66.3301 -52.168 -106.997 -64.501s-77.334 -18.5 -110.001 -18.5c-36.667 0 -69.667 6 -99 18
s-56.833 25.5 -82.5 40.5s-50.834 28.5 -75.501 40.5s-50.667 18 -78 18c-36 0 -74.167 -6.83301 -114.5 -20.5s-79.5 -38.167 -117.5 -73.5l34 214c32.667 30.667 69.167 52.334 109.5 65.001s77.166 19 110.499 19c30.667 0 60.334 -6.33301 89.001 -19s56.5 -26 83.5 -40
l80 -40.5c26.333 -13 52.833 -19.5 79.5 -19.5c40.667 0 79.667 6.66699 117 20s76.666 38 117.999 74z" />
    <glyph glyph-name=".notdef.116" unicode="&#x1eac;" 
d="M1134 1509l-120 181l-204 -181h-283l404 370h216l219 -370h-232zM954 0l-14 215h-500l-106 -215h-301l721 1386h407l107 -1386h-314zM887 1108l-336 -664h379zM430 -436l65 309h262l-65 -309h-262z" />
    <glyph glyph-name=".notdef.056" unicode="&#x1ead;" horiz-adv-x="1290" 
d="M283 0c-52 0 -89.667 9.83398 -113 29.501s-35 49.5 -35 89.5c0 18.667 3.33301 44 10 76l52 245c8 38.667 17.5 70.834 28.5 96.501s24.667 46.167 41 61.5s36 26 59 32s51.167 9 84.5 9h526l-37 -176h-377c-18.667 0 -32.167 -3.5 -40.5 -10.5
s-14.5 -21.167 -18.5 -42.5l-23 -109c-1.33301 -6.66699 -2.33301 -12 -3 -16s-1 -8.33301 -1 -13c0 -17.333 13 -26 39 -26h479l109 508c1.33301 5.33301 2 12.666 2 21.999c0 11.333 -3.5 20 -10.5 26s-19.833 9 -38.5 9h-703l47 225h848c60 0 102.333 -9.83301 127 -29.5
s37 -50.834 37 -93.501c0 -18.667 -3.33301 -45 -10 -79l-176 -834h-903zM1076 1166l-120 181l-204 -181h-283l404 370h216l219 -370h-232zM456 -435.999l65 309h262l-65 -309h-262z" />
    <glyph glyph-name=".notdef.119" unicode="&#x1eae;" 
d="M954 0l-14 215h-500l-106 -215h-301l721 1386h407l107 -1386h-314zM887 1108l-336 -664h379zM1421 1828c-20.667 -53.333 -39.001 -97.998 -55.001 -133.998s-32.167 -65.667 -48.5 -89s-33.833 -41.166 -52.5 -53.499s-41 -21.333 -67 -27
s-56.667 -8.83398 -92 -9.50098s-77.666 -1 -126.999 -1c-58.667 0 -108.5 1.16699 -149.5 3.5s-74 11 -99 26s-42.5 38.5 -52.5 70.5s-13 77.667 -9 137l9 75h165l-3 -35c-6 -31.333 -6.66699 -54.5 -2 -69.5s14 -25.167 28 -30.5s32.333 -7.5 55 -6.5s49.667 1.5 81 1.5
c42 0 75.667 0.5 101 1.5s46 5.66699 62 14s29.167 22.166 39.5 41.499s21.5 47.666 33.5 84.999h183zM892.999 1835l281 358h281l-340 -358h-222z" />
    <glyph glyph-name=".notdef.053" unicode="&#x1eaf;" horiz-adv-x="1290" 
d="M283 0c-52 0 -89.667 9.83398 -113 29.501s-35 49.5 -35 89.5c0 18.667 3.33301 44 10 76l52 245c8 38.667 17.5 70.834 28.5 96.501s24.667 46.167 41 61.5s36 26 59 32s51.167 9 84.5 9h526l-37 -176h-377c-18.667 0 -32.167 -3.5 -40.5 -10.5
s-14.5 -21.167 -18.5 -42.5l-23 -109c-1.33301 -6.66699 -2.33301 -12 -3 -16s-1 -8.33301 -1 -13c0 -17.333 13 -26 39 -26h479l109 508c1.33301 5.33301 2 12.666 2 21.999c0 11.333 -3.5 20 -10.5 26s-19.833 9 -38.5 9h-703l47 225h848c60 0 102.333 -9.83301 127 -29.5
s37 -50.834 37 -93.501c0 -18.667 -3.33301 -45 -10 -79l-176 -834h-903zM1342 1481c-20.667 -53.333 -39.001 -97.998 -55.001 -133.998s-32.167 -65.667 -48.5 -89s-33.833 -41.166 -52.5 -53.499s-41 -21.333 -67 -27s-56.667 -8.83398 -92 -9.50098
s-77.666 -1 -126.999 -1c-58.667 0 -108.5 1.16699 -149.5 3.5s-74 11 -99 26s-42.5 38.5 -52.5 70.5s-13 77.667 -9 137l9 75h165l-3 -35c-6 -31.333 -6.66699 -54.5 -2 -69.5s14 -25.167 28 -30.5s32.333 -7.5 55 -6.5s49.667 1.5 81 1.5c42 0 75.667 0.5 101 1.5
s46 5.66699 62 14s29.167 22.166 39.5 41.499s21.5 47.666 33.5 84.999h183zM812.999 1488l281 358h281l-340 -358h-222z" />
    <glyph glyph-name=".notdef.118" unicode="&#x1eb0;" 
d="M954 0l-14 215h-500l-106 -215h-301l721 1386h407l107 -1386h-314zM887 1108l-336 -664h379zM1421 1828c-20.667 -53.333 -39.001 -97.998 -55.001 -133.998s-32.167 -65.667 -48.5 -89s-33.833 -41.166 -52.5 -53.499s-41 -21.333 -67 -27
s-56.667 -8.83398 -92 -9.50098s-77.666 -1 -126.999 -1c-58.667 0 -108.5 1.16699 -149.5 3.5s-74 11 -99 26s-42.5 38.5 -52.5 70.5s-13 77.667 -9 137l9 75h165l-3 -35c-6 -31.333 -6.66699 -54.5 -2 -69.5s14 -25.167 28 -30.5s32.333 -7.5 55 -6.5s49.667 1.5 81 1.5
c42 0 75.667 0.5 101 1.5s46 5.66699 62 14s29.167 22.166 39.5 41.499s21.5 47.666 33.5 84.999h183zM982.999 1838l-210 361h255l156 -361h-201z" />
    <glyph glyph-name=".notdef.054" unicode="&#x1eb1;" horiz-adv-x="1290" 
d="M283 0c-52 0 -89.667 9.83398 -113 29.501s-35 49.5 -35 89.5c0 18.667 3.33301 44 10 76l52 245c8 38.667 17.5 70.834 28.5 96.501s24.667 46.167 41 61.5s36 26 59 32s51.167 9 84.5 9h526l-37 -176h-377c-18.667 0 -32.167 -3.5 -40.5 -10.5
s-14.5 -21.167 -18.5 -42.5l-23 -109c-1.33301 -6.66699 -2.33301 -12 -3 -16s-1 -8.33301 -1 -13c0 -17.333 13 -26 39 -26h479l109 508c1.33301 5.33301 2 12.666 2 21.999c0 11.333 -3.5 20 -10.5 26s-19.833 9 -38.5 9h-703l47 225h848c60 0 102.333 -9.83301 127 -29.5
s37 -50.834 37 -93.501c0 -18.667 -3.33301 -45 -10 -79l-176 -834h-903zM1342 1481c-20.667 -53.333 -39.001 -97.998 -55.001 -133.998s-32.167 -65.667 -48.5 -89s-33.833 -41.166 -52.5 -53.499s-41 -21.333 -67 -27s-56.667 -8.83398 -92 -9.50098
s-77.666 -1 -126.999 -1c-58.667 0 -108.5 1.16699 -149.5 3.5s-74 11 -99 26s-42.5 38.5 -52.5 70.5s-13 77.667 -9 137l9 75h165l-3 -35c-6 -31.333 -6.66699 -54.5 -2 -69.5s14 -25.167 28 -30.5s32.333 -7.5 55 -6.5s49.667 1.5 81 1.5c42 0 75.667 0.5 101 1.5
s46 5.66699 62 14s29.167 22.166 39.5 41.499s21.5 47.666 33.5 84.999h183zM904.999 1491l-210 361h255l156 -361h-201z" />
    <glyph glyph-name=".notdef.120" unicode="&#x1eb2;" 
d="M954 0l-14 215h-500l-106 -215h-301l721 1386h407l107 -1386h-314zM887 1108l-336 -664h379zM1421 1828c-20.667 -53.333 -39.001 -97.998 -55.001 -133.998s-32.167 -65.667 -48.5 -89s-33.833 -41.166 -52.5 -53.499s-41 -21.333 -67 -27
s-56.667 -8.83398 -92 -9.50098s-77.666 -1 -126.999 -1c-58.667 0 -108.5 1.16699 -149.5 3.5s-74 11 -99 26s-42.5 38.5 -52.5 70.5s-13 77.667 -9 137l9 75h165l-3 -35c-6 -31.333 -6.66699 -54.5 -2 -69.5s14 -25.167 28 -30.5s32.333 -7.5 55 -6.5s49.667 1.5 81 1.5
c42 0 75.667 0.5 101 1.5s46 5.66699 62 14s29.167 22.166 39.5 41.499s21.5 47.666 33.5 84.999h183zM1132 1862c-1.33301 0 -2.49805 -1.00195 -3.49805 -3.00195l-2.5 -5v-7c-1.33301 -3.33301 -2.5 -4 -3.5 -2s-2.16699 1.33301 -3.5 -2
c-2 -5.33301 -3.66699 -11.333 -5 -18s-2.66602 -13 -3.99902 -19h-180l27 103c16 72 60.667 108 134 108h20c5.33301 0 9.33301 1.83301 12 5.5s5 8.16699 7 13.5c1.33301 6.66699 2.66602 11.5 3.99902 14.5s3 8.16699 5 15.5l2 10c0.666992 3.33301 1.66699 6.66602 3 10
c0 2.66699 0.166992 4.16699 0.5 4.5s0.833008 0.5 1.5 0.5s1.16699 0.166992 1.5 0.5s0.833008 1.5 1.5 3.5c0 2 0.333008 3.66699 1 5s1 2.66602 1 4c-1.33301 -1.33301 -3.33301 -2 -6 -2h-279l31 161h336c22 0 40 -1.33301 54 -4s25.167 -7.33398 33.5 -14
c8.33301 -6.66699 14 -15.334 17 -26c3 -10.667 4.5 -24.334 4.5 -41c0 -5.33301 -0.166992 -11.333 -0.5 -18s-0.833008 -13 -1.5 -19v-6c0 -1.33301 -0.166992 -2.66602 -0.5 -4c-0.333008 -1.33301 -0.5 -2.66602 -0.5 -3.99902l-34 -132
c-4.66699 -22 -10.334 -41.167 -17.001 -57.5s-15.334 -30.166 -26.001 -41.499s-23.667 -19.833 -39 -25.5s-34.333 -8.5 -57 -8.5h-34z" />
    <glyph glyph-name=".notdef.052" unicode="&#x1eb3;" horiz-adv-x="1290" 
d="M283 0c-52 0 -89.667 9.83398 -113 29.501s-35 49.5 -35 89.5c0 18.667 3.33301 44 10 76l52 245c8 38.667 17.5 70.834 28.5 96.501s24.667 46.167 41 61.5s36 26 59 32s51.167 9 84.5 9h526l-37 -176h-377c-18.667 0 -32.167 -3.5 -40.5 -10.5
s-14.5 -21.167 -18.5 -42.5l-23 -109c-1.33301 -6.66699 -2.33301 -12 -3 -16s-1 -8.33301 -1 -13c0 -17.333 13 -26 39 -26h479l109 508c1.33301 5.33301 2 12.666 2 21.999c0 11.333 -3.5 20 -10.5 26s-19.833 9 -38.5 9h-703l47 225h848c60 0 102.333 -9.83301 127 -29.5
s37 -50.834 37 -93.501c0 -18.667 -3.33301 -45 -10 -79l-176 -834h-903zM1342 1481c-20.667 -53.333 -39.001 -97.998 -55.001 -133.998s-32.167 -65.667 -48.5 -89s-33.833 -41.166 -52.5 -53.499s-41 -21.333 -67 -27s-56.667 -8.83398 -92 -9.50098
s-77.666 -1 -126.999 -1c-58.667 0 -108.5 1.16699 -149.5 3.5s-74 11 -99 26s-42.5 38.5 -52.5 70.5s-13 77.667 -9 137l9 75h165l-3 -35c-6 -31.333 -6.66699 -54.5 -2 -69.5s14 -25.167 28 -30.5s32.333 -7.5 55 -6.5s49.667 1.5 81 1.5c42 0 75.667 0.5 101 1.5
s46 5.66699 62 14s29.167 22.166 39.5 41.499s21.5 47.666 33.5 84.999h183zM1053 1514c-1.33301 0 -2.49805 -0.998047 -3.49805 -2.99805l-2.5 -5v-7c-1.33301 -3.33301 -2.5 -4 -3.5 -2s-2.16699 1.33301 -3.5 -2c-2 -5.33301 -3.66699 -11.333 -5 -18
s-2.66602 -13 -3.99902 -19h-180l27 103c16 72 60.667 108 134 108h20c5.33301 0 9.33301 1.83301 12 5.5s5 8.16699 7 13.5c1.33301 6.66699 2.66602 11.5 3.99902 14.5s3 8.16699 5 15.5l2 10c0.666992 3.33301 1.66699 6.66602 3 9.99902
c0 2.66699 0.166992 4.16699 0.5 4.5s0.833008 0.5 1.5 0.5s1.16699 0.166992 1.5 0.5s0.833008 1.5 1.5 3.5c0 2 0.333008 3.66699 1 5s1 2.66602 1 3.99902c-1.33301 -1.33301 -3.33301 -2 -6 -2h-279l31 161h336c22 0 40 -1.33301 54 -4s25.167 -7.33398 33.5 -14.001
s14 -15.334 17 -26.001s4.5 -24.334 4.5 -41.001c0 -5.33301 -0.166992 -11.333 -0.5 -18s-0.833008 -13 -1.5 -19v-6c0 -1.33301 -0.166992 -2.66602 -0.5 -3.99902s-0.5 -2.66602 -0.5 -3.99902l-34 -132c-4.66699 -22 -10.334 -41.167 -17.001 -57.5
s-15.334 -30.166 -26.001 -41.499s-23.667 -19.833 -39 -25.5s-34.333 -8.5 -57 -8.5h-34z" />
    <glyph glyph-name=".notdef.121" unicode="&#x1eb4;" 
d="M954 0l-14 215h-500l-106 -215h-301l721 1386h407l107 -1386h-314zM887 1108l-336 -664h379zM1421 1828c-20.667 -53.333 -39.001 -97.998 -55.001 -133.998s-32.167 -65.667 -48.5 -89s-33.833 -41.166 -52.5 -53.499s-41 -21.333 -67 -27
s-56.667 -8.83398 -92 -9.50098s-77.666 -1 -126.999 -1c-58.667 0 -108.5 1.16699 -149.5 3.5s-74 11 -99 26s-42.5 38.5 -52.5 70.5s-13 77.667 -9 137l9 75h165l-3 -35c-6 -31.333 -6.66699 -54.5 -2 -69.5s14 -25.167 28 -30.5s32.333 -7.5 55 -6.5s49.667 1.5 81 1.5
c42 0 75.667 0.5 101 1.5s46 5.66699 62 14s29.167 22.166 39.5 41.499s21.5 47.666 33.5 84.999h183zM1437 1993c-30.667 -30.667 -66.3301 -52.167 -106.997 -64.5s-77.334 -18.5 -110.001 -18.5c-36.667 0 -69.667 6 -99 18s-56.833 25.5 -82.5 40.5
s-50.834 28.5 -75.501 40.5s-50.667 18 -78 18c-36 0 -74.167 -6.83301 -114.5 -20.5s-79.5 -38.167 -117.5 -73.5l34 214c32.667 30.667 69.167 52.334 109.5 65c40.333 12.667 77.166 19 110.499 19c30.667 0 60.334 -6.33301 89.001 -19s56.5 -26 83.5 -40l80 -40.5
c26.333 -13 52.833 -19.5 79.5 -19.5c40.667 0 79.667 6.66699 117 20s76.666 38 117.999 74z" />
    <glyph glyph-name=".notdef.051" unicode="&#x1eb5;" horiz-adv-x="1290" 
d="M283 0c-52 0 -89.667 9.83398 -113 29.501s-35 49.5 -35 89.5c0 18.667 3.33301 44 10 76l52 245c8 38.667 17.5 70.834 28.5 96.501s24.667 46.167 41 61.5s36 26 59 32s51.167 9 84.5 9h526l-37 -176h-377c-18.667 0 -32.167 -3.5 -40.5 -10.5
s-14.5 -21.167 -18.5 -42.5l-23 -109c-1.33301 -6.66699 -2.33301 -12 -3 -16s-1 -8.33301 -1 -13c0 -17.333 13 -26 39 -26h479l109 508c1.33301 5.33301 2 12.666 2 21.999c0 11.333 -3.5 20 -10.5 26s-19.833 9 -38.5 9h-703l47 225h848c60 0 102.333 -9.83301 127 -29.5
s37 -50.834 37 -93.501c0 -18.667 -3.33301 -45 -10 -79l-176 -834h-903zM1342 1481c-20.667 -53.333 -39.001 -97.998 -55.001 -133.998s-32.167 -65.667 -48.5 -89s-33.833 -41.166 -52.5 -53.499s-41 -21.333 -67 -27s-56.667 -8.83398 -92 -9.50098
s-77.666 -1 -126.999 -1c-58.667 0 -108.5 1.16699 -149.5 3.5s-74 11 -99 26s-42.5 38.5 -52.5 70.5s-13 77.667 -9 137l9 75h165l-3 -35c-6 -31.333 -6.66699 -54.5 -2 -69.5s14 -25.167 28 -30.5s32.333 -7.5 55 -6.5s49.667 1.5 81 1.5c42 0 75.667 0.5 101 1.5
s46 5.66699 62 14s29.167 22.166 39.5 41.499s21.5 47.666 33.5 84.999h183zM1359 1646c-30.667 -30.667 -66.3301 -52.168 -106.997 -64.501s-77.334 -18.5 -110.001 -18.5c-36.667 0 -69.667 6 -99 18s-56.833 25.5 -82.5 40.5s-50.834 28.5 -75.501 40.5
s-50.667 18 -78 18c-36 0 -74.167 -6.83301 -114.5 -20.5s-79.5 -38.167 -117.5 -73.5l34 214c32.667 30.667 69.167 52.334 109.5 65.001s77.166 19 110.499 19c30.667 0 60.334 -6.33301 89.001 -19s56.5 -26 83.5 -40l80 -40.5c26.333 -13 52.833 -19.5 79.5 -19.5
c40.667 0 79.667 6.66699 117 20s76.666 38 117.999 74z" />
    <glyph glyph-name=".notdef.122" unicode="&#x1eb6;" 
d="M954 0l-14 215h-500l-106 -215h-301l721 1386h407l107 -1386h-314zM887 1108l-336 -664h379zM1421 1828c-20.667 -53.333 -39.001 -97.998 -55.001 -133.998s-32.167 -65.667 -48.5 -89s-33.833 -41.166 -52.5 -53.499s-41 -21.333 -67 -27
s-56.667 -8.83398 -92 -9.50098s-77.666 -1 -126.999 -1c-58.667 0 -108.5 1.16699 -149.5 3.5s-74 11 -99 26s-42.5 38.5 -52.5 70.5s-13 77.667 -9 137l9 75h165l-3 -35c-6 -31.333 -6.66699 -54.5 -2 -69.5s14 -25.167 28 -30.5s32.333 -7.5 55 -6.5s49.667 1.5 81 1.5
c42 0 75.667 0.5 101 1.5s46 5.66699 62 14s29.167 22.166 39.5 41.499s21.5 47.666 33.5 84.999h183zM429.999 -435.998l65 309h262l-65 -309h-262z" />
    <glyph glyph-name=".notdef.050" unicode="&#x1eb7;" horiz-adv-x="1290" 
d="M283 0c-52 0 -89.667 9.83398 -113 29.501s-35 49.5 -35 89.5c0 18.667 3.33301 44 10 76l52 245c8 38.667 17.5 70.834 28.5 96.501s24.667 46.167 41 61.5s36 26 59 32s51.167 9 84.5 9h526l-37 -176h-377c-18.667 0 -32.167 -3.5 -40.5 -10.5
s-14.5 -21.167 -18.5 -42.5l-23 -109c-1.33301 -6.66699 -2.33301 -12 -3 -16s-1 -8.33301 -1 -13c0 -17.333 13 -26 39 -26h479l109 508c1.33301 5.33301 2 12.666 2 21.999c0 11.333 -3.5 20 -10.5 26s-19.833 9 -38.5 9h-703l47 225h848c60 0 102.333 -9.83301 127 -29.5
s37 -50.834 37 -93.501c0 -18.667 -3.33301 -45 -10 -79l-176 -834h-903zM1342 1481c-20.667 -53.333 -39.001 -97.998 -55.001 -133.998s-32.167 -65.667 -48.5 -89s-33.833 -41.166 -52.5 -53.499s-41 -21.333 -67 -27s-56.667 -8.83398 -92 -9.50098
s-77.666 -1 -126.999 -1c-58.667 0 -108.5 1.16699 -149.5 3.5s-74 11 -99 26s-42.5 38.5 -52.5 70.5s-13 77.667 -9 137l9 75h165l-3 -35c-6 -31.333 -6.66699 -54.5 -2 -69.5s14 -25.167 28 -30.5s32.333 -7.5 55 -6.5s49.667 1.5 81 1.5c42 0 75.667 0.5 101 1.5
s46 5.66699 62 14s29.167 22.166 39.5 41.499s21.5 47.666 33.5 84.999h183zM455.999 -435.997l65 309h262l-65 -309h-262z" />
    <glyph glyph-name=".notdef.127" unicode="&#x1eb8;" horiz-adv-x="1247" 
d="M104 0l215 1014h322l-49 -226h510l-47 -221h-510l-62 -291h707l-57 -276h-1029zM340 1116l57 270h1028l-57 -270h-1028zM416 -436l65 309h262l-65 -309h-262z" />
    <glyph glyph-name=".notdef.045" unicode="&#x1eb9;" horiz-adv-x="1266" 
d="M287 0c-58.667 0 -100.667 9.83203 -126 29.499s-38 50.834 -38 93.501c0 19.333 3.33301 46 10 80l133 631c15.333 69.333 40.333 120.333 75 153s89.667 49 165 49h700c52 0 89.333 -9.83301 112 -29.5s34 -49.167 34 -88.5c0 -24.667 -3 -50 -9 -76l-86 -408h-690
l35 172h418l31 139c1.33301 7.33301 2 16.333 2 27s-3.16699 18.167 -9.5 22.5s-17.5 6.5 -33.5 6.5h-412c-23.333 0 -39 -3.83301 -47 -11.5s-15 -23.167 -21 -46.5l-96 -446c-1.33301 -6.66699 -2.33301 -12.5 -3 -17.5s-1 -9.5 -1 -13.5c0 -12 3.5 -20 10.5 -24
s19.167 -6 36.5 -6h699l-50 -236h-839zM423 -436.001l65 309h262l-65 -309h-262z" />
    <glyph glyph-name=".notdef.125" unicode="&#x1eba;" horiz-adv-x="1247" 
d="M104 0l215 1014h322l-49 -226h510l-47 -221h-510l-62 -291h707l-57 -276h-1029zM340 1116l57 270h1028l-57 -270h-1028zM1031 1568c-1.33301 0 -2.49902 -0.99707 -3.49902 -2.99707l-2.5 -5c0 -1.33301 -0.166992 -2.5 -0.5 -3.5s-0.5 -2.16699 -0.5 -3.5
c-1.33301 -4 -2.5 -4.83301 -3.5 -2.5s-2.16699 1.83301 -3.5 -1.5c-2 -6 -3.66699 -12.333 -5 -19l-4 -20h-187l28 107c16 75.333 62.333 113 139 113h21c5.33301 0 9.5 1.83301 12.5 5.5s5.5 8.16699 7.5 13.5c1.33301 7.33301 2.66602 12.666 3.99902 15.999
s3 8.66602 5 15.999l2 10c0.666992 3.33301 1.66699 6.66602 3 9.99902c0 2.66699 0.166992 4.16699 0.5 4.5s0.833008 0.5 1.5 0.5s1.16699 0.166992 1.5 0.5s0.833008 1.83301 1.5 4.5c0 2 0.5 3.66699 1.5 5s1.5 2.66602 1.5 3.99902c-2.66699 -1.33301 -5 -2 -7 -2h-290
l32 181h350c46 0 78.667 -8.33301 98 -25s29 -42.334 29 -77.001c0 -5.33301 -0.166992 -11.5 -0.5 -18.5s-0.833008 -13.5 -1.5 -19.5v-7c0 -1.33301 -0.166992 -2.66602 -0.5 -3.99902s-0.5 -2.66602 -0.5 -3.99902l-36 -137c-10 -46 -27 -80.667 -51 -104
s-59.667 -35 -107 -35h-35z" />
    <glyph glyph-name=".notdef.047" unicode="&#x1ebb;" horiz-adv-x="1266" 
d="M287 0c-58.667 0 -100.667 9.83203 -126 29.499s-38 50.834 -38 93.501c0 19.333 3.33301 46 10 80l133 631c15.333 69.333 40.333 120.333 75 153s89.667 49 165 49h700c52 0 89.333 -9.83301 112 -29.5s34 -49.167 34 -88.5c0 -24.667 -3 -50 -9 -76l-86 -408h-690
l35 172h418l31 139c1.33301 7.33301 2 16.333 2 27s-3.16699 18.167 -9.5 22.5s-17.5 6.5 -33.5 6.5h-412c-23.333 0 -39 -3.83301 -47 -11.5s-15 -23.167 -21 -46.5l-96 -446c-1.33301 -6.66699 -2.33301 -12.5 -3 -17.5s-1 -9.5 -1 -13.5c0 -12 3.5 -20 10.5 -24
s19.167 -6 36.5 -6h699l-50 -236h-839zM959 1221c-1.33301 0 -2.49902 -0.99707 -3.49902 -2.99707l-2.5 -5c0 -1.33301 -0.166992 -2.5 -0.5 -3.5s-0.5 -2.16699 -0.5 -3.5c-1.33301 -4 -2.5 -4.83301 -3.5 -2.5s-2.16699 1.83301 -3.5 -1.5c-2 -6 -3.66699 -12.333 -5 -19
l-4 -20h-187l28 107c16 75.333 62.333 113 139 113h21c5.33301 0 9.5 1.83301 12.5 5.5s5.5 8.16699 7.5 13.5c1.33301 7.33301 2.66602 12.666 3.99902 15.999s3 8.66602 5 15.999l2 10c0.666992 3.33301 1.66699 6.66602 3 9.99902c0 2.66699 0.166992 4.16699 0.5 4.5
s0.833008 0.5 1.5 0.5s1.16699 0.166992 1.5 0.5s0.833008 1.83301 1.5 4.5c0 2 0.5 3.66699 1.5 5s1.5 2.66602 1.5 3.99902c-2.66699 -1.33301 -5 -2 -7 -2h-290l32 181h350c46 0 78.667 -8.33301 98 -25s29 -42.334 29 -77.001c0 -5.33301 -0.166992 -11.5 -0.5 -18.5
s-0.833008 -13.5 -1.5 -19.5v-7c0 -1.33301 -0.166992 -2.66602 -0.5 -3.99902s-0.5 -2.66602 -0.5 -3.99902l-36 -137c-10 -46 -27 -80.667 -51 -104s-59.667 -35 -107 -35h-35z" />
    <glyph glyph-name=".notdef.126" unicode="&#x1ebc;" horiz-adv-x="1247" 
d="M104 0l215 1014h322l-49 -226h510l-47 -221h-510l-62 -291h707l-57 -276h-1029zM340 1116l57 270h1028l-57 -270h-1028zM1337 1596c-30.667 -30.667 -66.3301 -52.168 -106.997 -64.501s-77.334 -18.5 -110.001 -18.5c-36.667 0 -69.667 6 -99 18
s-56.833 25.5 -82.5 40.5s-50.834 28.5 -75.501 40.5s-50.667 18 -78 18c-36 0 -74.167 -6.83301 -114.5 -20.5s-79.5 -38.167 -117.5 -73.5l34 214c32.667 30.667 69.167 52.334 109.5 65.001s77.166 19 110.499 19c30.667 0 60.334 -6.33301 89.001 -19s56.5 -26 83.5 -40
l80 -40.5c26.333 -13 52.833 -19.5 79.5 -19.5c40.667 0 79.667 6.66699 117 20s76.666 38 117.999 74z" />
    <glyph glyph-name=".notdef.046" unicode="&#x1ebd;" horiz-adv-x="1266" 
d="M287 0c-58.667 0 -100.667 9.83203 -126 29.499s-38 50.834 -38 93.501c0 19.333 3.33301 46 10 80l133 631c15.333 69.333 40.333 120.333 75 153s89.667 49 165 49h700c52 0 89.333 -9.83301 112 -29.5s34 -49.167 34 -88.5c0 -24.667 -3 -50 -9 -76l-86 -408h-690
l35 172h418l31 139c1.33301 7.33301 2 16.333 2 27s-3.16699 18.167 -9.5 22.5s-17.5 6.5 -33.5 6.5h-412c-23.333 0 -39 -3.83301 -47 -11.5s-15 -23.167 -21 -46.5l-96 -446c-1.33301 -6.66699 -2.33301 -12.5 -3 -17.5s-1 -9.5 -1 -13.5c0 -12 3.5 -20 10.5 -24
s19.167 -6 36.5 -6h699l-50 -236h-839zM1279 1248c-30.667 -30.667 -66.3301 -52.168 -106.997 -64.501s-77.334 -18.5 -110.001 -18.5c-36.667 0 -69.667 6 -99 18s-56.833 25.5 -82.5 40.5s-50.834 28.5 -75.501 40.5s-50.667 18 -78 18
c-36 0 -74.167 -6.83301 -114.5 -20.5s-79.5 -38.167 -117.5 -73.5l34 214c32.667 30.667 69.167 52.334 109.5 65.001s77.166 19 110.499 19c30.667 0 60.334 -6.33301 89.001 -19s56.5 -26 83.5 -40l80 -40.5c26.333 -13 52.833 -19.5 79.5 -19.5
c40.667 0 79.667 6.66699 117 20s76.666 38 117.999 74z" />
    <glyph glyph-name=".notdef.130" unicode="&#x1ebe;" horiz-adv-x="1247" 
d="M104 0l215 1014h322l-49 -226h510l-47 -221h-510l-62 -291h707l-57 -276h-1029zM340 1116l57 270h1028l-57 -270h-1028zM1106 1510l-120 181l-204 -181h-283l404 370h216l219 -370h-232zM1258 1781l281 358h281l-340 -358h-222z" />
    <glyph glyph-name=".notdef.042" unicode="&#x1ebf;" horiz-adv-x="1266" 
d="M287 0c-58.667 0 -100.667 9.83203 -126 29.499s-38 50.834 -38 93.501c0 19.333 3.33301 46 10 80l133 631c15.333 69.333 40.333 120.333 75 153s89.667 49 165 49h700c52 0 89.333 -9.83301 112 -29.5s34 -49.167 34 -88.5c0 -24.667 -3 -50 -9 -76l-86 -408h-690
l35 172h418l31 139c1.33301 7.33301 2 16.333 2 27s-3.16699 18.167 -9.5 22.5s-17.5 6.5 -33.5 6.5h-412c-23.333 0 -39 -3.83301 -47 -11.5s-15 -23.167 -21 -46.5l-96 -446c-1.33301 -6.66699 -2.33301 -12.5 -3 -17.5s-1 -9.5 -1 -13.5c0 -12 3.5 -20 10.5 -24
s19.167 -6 36.5 -6h699l-50 -236h-839zM1044 1166l-120 181l-204 -181h-283l404 370h216l219 -370h-232zM1196 1437l281 358h281l-340 -358h-222z" />
    <glyph glyph-name=".notdef.129" unicode="&#x1ec0;" horiz-adv-x="1247" 
d="M104 0l215 1014h322l-49 -226h510l-47 -221h-510l-62 -291h707l-57 -276h-1029zM340 1116l57 270h1028l-57 -270h-1028zM1106 1510l-120 181l-204 -181h-283l404 370h216l219 -370h-232zM1323 1780l-210 361h255l156 -361h-201z" />
    <glyph glyph-name=".notdef.043" unicode="&#x1ec1;" horiz-adv-x="1266" 
d="M287 0c-58.667 0 -100.667 9.83203 -126 29.499s-38 50.834 -38 93.501c0 19.333 3.33301 46 10 80l133 631c15.333 69.333 40.333 120.333 75 153s89.667 49 165 49h700c52 0 89.333 -9.83301 112 -29.5s34 -49.167 34 -88.5c0 -24.667 -3 -50 -9 -76l-86 -408h-690
l35 172h418l31 139c1.33301 7.33301 2 16.333 2 27s-3.16699 18.167 -9.5 22.5s-17.5 6.5 -33.5 6.5h-412c-23.333 0 -39 -3.83301 -47 -11.5s-15 -23.167 -21 -46.5l-96 -446c-1.33301 -6.66699 -2.33301 -12.5 -3 -17.5s-1 -9.5 -1 -13.5c0 -12 3.5 -20 10.5 -24
s19.167 -6 36.5 -6h699l-50 -236h-839zM1044 1166l-120 181l-204 -181h-283l404 370h216l219 -370h-232zM1262 1436l-210 361h255l156 -361h-201z" />
    <glyph glyph-name=".notdef.131" unicode="&#x1ec2;" horiz-adv-x="1247" 
d="M104 0l215 1014h322l-49 -226h510l-47 -221h-510l-62 -291h707l-57 -276h-1029zM340 1116l57 270h1028l-57 -270h-1028zM1106 1510l-120 181l-204 -181h-283l404 370h216l219 -370h-232zM1499 1800c-1.33301 0 -2.49902 -0.99707 -3.49902 -2.99707l-2.5 -5
c0 -1.33301 -0.166992 -2.5 -0.5 -3.5s-0.5 -2.16699 -0.5 -3.5c-1.33301 -4 -2.5 -4.83301 -3.5 -2.5s-2.16699 1.83301 -3.5 -1.5c-2 -6 -3.66699 -12.333 -5 -19l-4 -20h-187l28 107c16 75.333 62.333 113 139 113h21c5.33301 0 9.5 1.83301 12.5 5.5
s5.5 8.16699 7.5 13.5c1.33301 7.33301 2.66602 12.666 3.99902 15.999s3 8.66602 5 15.999l2 10c0.666992 3.33301 1.66699 6.66602 3 9.99902c0 2.66699 0.166992 4.16699 0.5 4.5s0.833008 0.5 1.5 0.5s1.16699 0.166992 1.5 0.5s0.833008 1.83301 1.5 4.5
c0 2 0.5 3.66699 1.5 5s1.5 2.66602 1.5 4c-2.66699 -1.33301 -5 -2 -7 -2h-290l32 181h350c46 0 78.667 -8.33301 98 -25s29 -42.334 29 -77c0 -5.33301 -0.166992 -11.5 -0.5 -18.5s-0.833008 -13.5 -1.5 -19.5v-7c0 -1.33301 -0.166992 -2.66602 -0.5 -4
c-0.333008 -1.33301 -0.5 -2.66602 -0.5 -4l-36 -137c-10 -46 -27 -80.667 -51 -104s-59.667 -35 -107 -35h-35z" />
    <glyph glyph-name=".notdef.041" unicode="&#x1ec3;" horiz-adv-x="1266" 
d="M287 0c-58.667 0 -100.667 9.83203 -126 29.499s-38 50.834 -38 93.501c0 19.333 3.33301 46 10 80l133 631c15.333 69.333 40.333 120.333 75 153s89.667 49 165 49h700c52 0 89.333 -9.83301 112 -29.5s34 -49.167 34 -88.5c0 -24.667 -3 -50 -9 -76l-86 -408h-690
l35 172h418l31 139c1.33301 7.33301 2 16.333 2 27s-3.16699 18.167 -9.5 22.5s-17.5 6.5 -33.5 6.5h-412c-23.333 0 -39 -3.83301 -47 -11.5s-15 -23.167 -21 -46.5l-96 -446c-1.33301 -6.66699 -2.33301 -12.5 -3 -17.5s-1 -9.5 -1 -13.5c0 -12 3.5 -20 10.5 -24
s19.167 -6 36.5 -6h699l-50 -236h-839zM1044 1166l-120 181l-204 -181h-283l404 370h216l219 -370h-232zM1437 1456c-1.33301 0 -2.49902 -0.99707 -3.49902 -2.99707l-2.5 -5c0 -1.33301 -0.166992 -2.5 -0.5 -3.5s-0.5 -2.16699 -0.5 -3.5
c-1.33301 -4 -2.5 -4.83301 -3.5 -2.5s-2.16699 1.83301 -3.5 -1.5c-2 -6 -3.66699 -12.333 -5 -19l-4 -20h-187l28 107c16 75.333 62.333 113 139 113h21c5.33301 0 9.5 1.83301 12.5 5.5s5.5 8.16699 7.5 13.5c1.33301 7.33301 2.66602 12.666 3.99902 15.999
s3 8.66602 5 15.999l2 10c0.666992 3.33301 1.66699 6.66602 3 9.99902c0 2.66699 0.166992 4.16699 0.5 4.5s0.833008 0.5 1.5 0.5s1.16699 0.166992 1.5 0.5s0.833008 1.83301 1.5 4.5c0 2 0.5 3.66699 1.5 5s1.5 2.66602 1.5 3.99902c-2.66699 -1.33301 -5 -2 -7 -2h-290
l32 181h350c46 0 78.667 -8.33301 98 -25s29 -42.334 29 -77.001c0 -5.33301 -0.166992 -11.5 -0.5 -18.5s-0.833008 -13.5 -1.5 -19.5v-7c0 -1.33301 -0.166992 -2.66602 -0.5 -3.99902s-0.5 -2.66602 -0.5 -3.99902l-36 -137c-10 -46 -27 -80.667 -51 -104
s-59.667 -35 -107 -35h-35z" />
    <glyph glyph-name=".notdef.132" unicode="&#x1ec4;" horiz-adv-x="1247" 
d="M104 0l215 1014h322l-49 -226h510l-47 -221h-510l-62 -291h707l-57 -276h-1029zM340 1116l57 270h1028l-57 -270h-1028zM1106 1510l-120 181l-204 -181h-283l404 370h216l219 -370h-232zM1411 2025c-30.667 -30.667 -66.3301 -52.167 -106.997 -64.5
s-77.334 -18.5 -110.001 -18.5c-36.667 0 -69.667 6 -99 18s-56.833 25.5 -82.5 40.5s-50.834 28.5 -75.501 40.5s-50.667 18 -78 18c-36 0 -74.167 -6.83301 -114.5 -20.5s-79.5 -38.167 -117.5 -73.5l34 214c32.667 30.667 69.167 52.334 109.5 65
c40.333 12.667 77.166 19 110.499 19c30.667 0 60.334 -6.33301 89.001 -19s56.5 -26 83.5 -40l80 -40.5c26.333 -13 52.833 -19.5 79.5 -19.5c40.667 0 79.667 6.66699 117 20s76.666 38 117.999 74z" />
    <glyph glyph-name=".notdef.040" unicode="&#x1ec5;" horiz-adv-x="1266" 
d="M287 0c-58.667 0 -100.667 9.83203 -126 29.499s-38 50.834 -38 93.501c0 19.333 3.33301 46 10 80l133 631c15.333 69.333 40.333 120.333 75 153s89.667 49 165 49h700c52 0 89.333 -9.83301 112 -29.5s34 -49.167 34 -88.5c0 -24.667 -3 -50 -9 -76l-86 -408h-690
l35 172h418l31 139c1.33301 7.33301 2 16.333 2 27s-3.16699 18.167 -9.5 22.5s-17.5 6.5 -33.5 6.5h-412c-23.333 0 -39 -3.83301 -47 -11.5s-15 -23.167 -21 -46.5l-96 -446c-1.33301 -6.66699 -2.33301 -12.5 -3 -17.5s-1 -9.5 -1 -13.5c0 -12 3.5 -20 10.5 -24
s19.167 -6 36.5 -6h699l-50 -236h-839zM1044 1166l-120 181l-204 -181h-283l404 370h216l219 -370h-232zM1346 1681c-30.667 -30.667 -66.3301 -52.168 -106.997 -64.501s-77.334 -18.5 -110.001 -18.5c-36.667 0 -69.667 6 -99 18s-56.833 25.5 -82.5 40.5
s-50.834 28.5 -75.501 40.5s-50.667 18 -78 18c-36 0 -74.167 -6.83301 -114.5 -20.5s-79.5 -38.167 -117.5 -73.5l34 214c32.667 30.667 69.167 52.334 109.5 65.001s77.166 19 110.499 19c30.667 0 60.334 -6.33301 89.001 -19s56.5 -26 83.5 -40l80 -40.5
c26.333 -13 52.833 -19.5 79.5 -19.5c40.667 0 79.667 6.66699 117 20s76.666 38 117.999 74z" />
    <glyph glyph-name=".notdef.105" unicode="&#x1ec6;" horiz-adv-x="1247" 
d="M104 0l215 1014h322l-49 -226h510l-47 -221h-510l-62 -291h707l-57 -276h-1029zM340 1116l57 270h1028l-57 -270h-1028zM1106 1510l-120 181l-204 -181h-283l404 370h216l219 -370h-232zM416 -436l65 309h262l-65 -309h-262z" />
    <glyph glyph-name=".notdef.039" unicode="&#x1ec7;" horiz-adv-x="1266" 
d="M287 0c-58.667 0 -100.667 9.83203 -126 29.499s-38 50.834 -38 93.501c0 19.333 3.33301 46 10 80l133 631c15.333 69.333 40.333 120.333 75 153s89.667 49 165 49h700c52 0 89.333 -9.83301 112 -29.5s34 -49.167 34 -88.5c0 -24.667 -3 -50 -9 -76l-86 -408h-690
l35 172h418l31 139c1.33301 7.33301 2 16.333 2 27s-3.16699 18.167 -9.5 22.5s-17.5 6.5 -33.5 6.5h-412c-23.333 0 -39 -3.83301 -47 -11.5s-15 -23.167 -21 -46.5l-96 -446c-1.33301 -6.66699 -2.33301 -12.5 -3 -17.5s-1 -9.5 -1 -13.5c0 -12 3.5 -20 10.5 -24
s19.167 -6 36.5 -6h699l-50 -236h-839zM1044 1166l-120 181l-204 -181h-283l404 370h216l219 -370h-232zM423 -436.001l65 309h262l-65 -309h-262z" />
    <glyph glyph-name=".notdef.102" unicode="&#x1ec8;" horiz-adv-x="553" 
d="M119 0l293 1386h311l-293 -1386h-311zM708 1568c-1.33301 0 -2.49902 -0.99707 -3.49902 -2.99707l-2.5 -5c0 -1.33301 -0.166992 -2.5 -0.5 -3.5s-0.5 -2.16699 -0.5 -3.5c-1.33301 -4 -2.5 -4.83301 -3.5 -2.5s-2.16699 1.83301 -3.5 -1.5
c-2 -6 -3.66699 -12.333 -5 -19l-4 -20h-187l28 107c16 75.333 62.333 113 139 113h21c5.33301 0 9.5 1.83301 12.5 5.5s5.5 8.16699 7.5 13.5c1.33301 7.33301 2.66602 12.666 3.99902 15.999s3 8.66602 5 15.999l2 10c0.666992 3.33301 1.66699 6.66602 3 9.99902
c0 2.66699 0.166992 4.16699 0.5 4.5s0.833008 0.5 1.5 0.5s1.16699 0.166992 1.5 0.5s0.833008 1.83301 1.5 4.5c0 2 0.5 3.66699 1.5 5s1.5 2.66602 1.5 3.99902c-2.66699 -1.33301 -5 -2 -7 -2h-290l32 181h350c46 0 78.667 -8.33301 98 -25s29 -42.334 29 -77.001
c0 -5.33301 -0.166992 -11.5 -0.5 -18.5s-0.833008 -13.5 -1.5 -19.5v-7c0 -1.33301 -0.166992 -2.66602 -0.5 -3.99902s-0.5 -2.66602 -0.5 -3.99902l-36 -137c-10 -46 -27 -80.667 -51 -104s-59.667 -35 -107 -35h-35z" />
    <glyph glyph-name=".notdef.036" unicode="&#x1ec9;" horiz-adv-x="518" 
d="M115 0l219 1036h287l-220 -1036h-286zM614 1221c-1.33301 0 -2.49902 -0.99707 -3.49902 -2.99707l-2.5 -5c0 -1.33301 -0.166992 -2.5 -0.5 -3.5s-0.5 -2.16699 -0.5 -3.5c-1.33301 -4 -2.5 -4.83301 -3.5 -2.5s-2.16699 1.83301 -3.5 -1.5
c-2 -6 -3.66699 -12.333 -5 -19l-4 -20h-187l28 107c16 75.333 62.333 113 139 113h21c5.33301 0 9.5 1.83301 12.5 5.5s5.5 8.16699 7.5 13.5c1.33301 7.33301 2.66602 12.666 3.99902 15.999s3 8.66602 5 15.999l2 10c0.666992 3.33301 1.66699 6.66602 3 9.99902
c0 2.66699 0.166992 4.16699 0.5 4.5s0.833008 0.5 1.5 0.5s1.16699 0.166992 1.5 0.5s0.833008 1.83301 1.5 4.5c0 2 0.5 3.66699 1.5 5s1.5 2.66602 1.5 3.99902c-2.66699 -1.33301 -5 -2 -7 -2h-290l32 181h350c46 0 78.667 -8.33301 98 -25s29 -42.334 29 -77.001
c0 -5.33301 -0.166992 -11.5 -0.5 -18.5s-0.833008 -13.5 -1.5 -19.5v-7c0 -1.33301 -0.166992 -2.66602 -0.5 -3.99902s-0.5 -2.66602 -0.5 -3.99902l-36 -137c-10 -46 -27 -80.667 -51 -104s-59.667 -35 -107 -35h-35z" />
    <glyph glyph-name=".notdef.100" unicode="&#x1eca;" horiz-adv-x="553" 
d="M119 0l293 1386h311l-293 -1386h-311zM65 -436l65 309h262l-65 -309h-262z" />
    <glyph glyph-name=".notdef.034" unicode="&#x1ecb;" horiz-adv-x="518" 
d="M115 0l219 1036h287l-220 -1036h-286zM360 1159l66 311h289l-66 -311h-289zM43 -436l65 309h262l-65 -309h-262z" />
    <glyph glyph-name=".notdef.095" unicode="&#x1ecc;" horiz-adv-x="1368" 
d="M340 0c-69.333 0 -119.499 12.332 -150.499 36.999s-46.5 62.334 -46.5 113.001c0 25.333 4.33301 56 13 92l190 903c18 82 48.167 142.667 90.5 182s107.833 59 196.5 59h690c69.333 0 119.166 -12.167 149.499 -36.5s45.5 -62.5 45.5 -114.5
c0 -14 -1.16699 -28.5 -3.5 -43.5l-7.5 -46.5l-190 -903c-18 -82 -48.5 -142.833 -91.5 -182.5s-108.167 -59.5 -195.5 -59.5h-690zM1174 1036c1.33301 7.33301 2.33301 13.667 3 19s1 10 1 14c0 31.333 -24 47 -72 47h-387c-27.333 0 -46.833 -5.5 -58.5 -16.5
s-20.834 -32.167 -27.501 -63.5l-148 -690c-2.66699 -13.333 -4 -22.333 -4 -27c0 -28.667 20 -43 60 -43h387c32.667 0 55.834 5.5 69.501 16.5s23.167 28.833 28.5 53.5zM479.001 -436l65 309h262l-65 -309h-262z" />
    <glyph glyph-name=".notdef.029" unicode="&#x1ecd;" horiz-adv-x="1296" 
d="M295 0c-57.333 0 -98.667 9.83301 -124 29.5s-38 50.834 -38 93.501c0 19.333 3.33301 46 10 80l133 631c15.333 69.333 40.333 120.333 75 153s89 49 163 49h705c60 0 102.167 -9.83301 126.5 -29.5s36.5 -50.834 36.5 -93.501c0 -18.667 -3.33301 -45 -10 -79
l-133 -631c-14.667 -70 -39.5 -121.333 -74.5 -154s-90.167 -49 -165.5 -49h-704zM1063 731c2.66699 14 4 22.332 4 24.999c0 21.333 -18.333 32 -55 32h-406c-22 0 -37.333 -3.66699 -46 -11s-15 -22.666 -19 -45.999l-88 -422c-1.33301 -5.33301 -2.33301 -10 -3 -14
s-1 -8 -1 -12c0 -19.333 15 -29 45 -29h405c24.667 0 42.5 4.16699 53.5 12.5s18.5 22.5 22.5 42.5zM452.999 -436.001l65 309h262l-65 -309h-262z" />
    <glyph glyph-name=".notdef.097" unicode="&#x1ece;" horiz-adv-x="1368" 
d="M340 0c-69.333 0 -119.499 12.332 -150.499 36.999s-46.5 62.334 -46.5 113.001c0 25.333 4.33301 56 13 92l190 903c18 82 48.167 142.667 90.5 182s107.833 59 196.5 59h690c69.333 0 119.166 -12.167 149.499 -36.5s45.5 -62.5 45.5 -114.5
c0 -14 -1.16699 -28.5 -3.5 -43.5l-7.5 -46.5l-190 -903c-18 -82 -48.5 -142.833 -91.5 -182.5s-108.167 -59.5 -195.5 -59.5h-690zM1174 1036c1.33301 7.33301 2.33301 13.667 3 19s1 10 1 14c0 31.333 -24 47 -72 47h-387c-27.333 0 -46.833 -5.5 -58.5 -16.5
s-20.834 -32.167 -27.501 -63.5l-148 -690c-2.66699 -13.333 -4 -22.333 -4 -27c0 -28.667 20 -43 60 -43h387c32.667 0 55.834 5.5 69.501 16.5s23.167 28.833 28.5 53.5zM1094 1568c-1.33301 0 -2.49902 -0.99707 -3.49902 -2.99707l-2.5 -5
c0 -1.33301 -0.166992 -2.5 -0.5 -3.5s-0.5 -2.16699 -0.5 -3.5c-1.33301 -4 -2.5 -4.83301 -3.5 -2.5s-2.16699 1.83301 -3.5 -1.5c-2 -6 -3.66699 -12.333 -5 -19l-4 -20h-187l28 107c16 75.333 62.333 113 139 113h21c5.33301 0 9.5 1.83301 12.5 5.5
s5.5 8.16699 7.5 13.5c1.33301 7.33301 2.66602 12.666 3.99902 15.999s3 8.66602 5 15.999l2 10c0.666992 3.33301 1.66699 6.66602 3 9.99902c0 2.66699 0.166992 4.16699 0.5 4.5s0.833008 0.5 1.5 0.5s1.16699 0.166992 1.5 0.5s0.833008 1.83301 1.5 4.5
c0 2 0.5 3.66699 1.5 5s1.5 2.66602 1.5 3.99902c-2.66699 -1.33301 -5 -2 -7 -2h-290l32 181h350c46 0 78.667 -8.33301 98 -25s29 -42.334 29 -77.001c0 -5.33301 -0.166992 -11.5 -0.5 -18.5s-0.833008 -13.5 -1.5 -19.5v-7c0 -1.33301 -0.166992 -2.66602 -0.5 -3.99902
s-0.5 -2.66602 -0.5 -3.99902l-36 -137c-10 -46 -27 -80.667 -51 -104s-59.667 -35 -107 -35h-35z" />
    <glyph glyph-name=".notdef.031" unicode="&#x1ecf;" horiz-adv-x="1296" 
d="M295 0c-57.333 0 -98.667 9.83301 -124 29.5s-38 50.834 -38 93.501c0 19.333 3.33301 46 10 80l133 631c15.333 69.333 40.333 120.333 75 153s89 49 163 49h705c60 0 102.167 -9.83301 126.5 -29.5s36.5 -50.834 36.5 -93.501c0 -18.667 -3.33301 -45 -10 -79
l-133 -631c-14.667 -70 -39.5 -121.333 -74.5 -154s-90.167 -49 -165.5 -49h-704zM1063 731c2.66699 14 4 22.332 4 24.999c0 21.333 -18.333 32 -55 32h-406c-22 0 -37.333 -3.66699 -46 -11s-15 -22.666 -19 -45.999l-88 -422c-1.33301 -5.33301 -2.33301 -10 -3 -14
s-1 -8 -1 -12c0 -19.333 15 -29 45 -29h405c24.667 0 42.5 4.16699 53.5 12.5s18.5 22.5 22.5 42.5zM986.999 1221c-1.33301 0 -2.49902 -0.99707 -3.49902 -2.99707l-2.5 -5c0 -1.33301 -0.166992 -2.5 -0.5 -3.5s-0.5 -2.16699 -0.5 -3.5
c-1.33301 -4 -2.5 -4.83301 -3.5 -2.5s-2.16699 1.83301 -3.5 -1.5c-2 -6 -3.66699 -12.333 -5 -19l-4 -20h-187l28 107c16 75.333 62.333 113 139 113h21c5.33301 0 9.5 1.83301 12.5 5.5s5.5 8.16699 7.5 13.5c1.33301 7.33301 2.66602 12.666 3.99902 15.999
s3 8.66602 5 15.999l2 10c0.666992 3.33301 1.66699 6.66602 3 9.99902c0 2.66699 0.166992 4.16699 0.5 4.5s0.833008 0.5 1.5 0.5s1.16699 0.166992 1.5 0.5s0.833008 1.83301 1.5 4.5c0 2 0.5 3.66699 1.5 5s1.5 2.66602 1.5 3.99902c-2.66699 -1.33301 -5 -2 -7 -2h-290
l32 181h350c46 0 78.667 -8.33301 98 -25s29 -42.334 29 -77.001c0 -5.33301 -0.166992 -11.5 -0.5 -18.5s-0.833008 -13.5 -1.5 -19.5v-7c0 -1.33301 -0.166992 -2.66602 -0.5 -3.99902s-0.5 -2.66602 -0.5 -3.99902l-36 -137c-10 -46 -27 -80.667 -51 -104
s-59.667 -35 -107 -35h-35z" />
    <glyph glyph-name=".notdef.092" unicode="&#x1ed0;" horiz-adv-x="1368" 
d="M340 0c-69.333 0 -119.499 12.332 -150.499 36.999s-46.5 62.334 -46.5 113.001c0 25.333 4.33301 56 13 92l190 903c18 82 48.167 142.667 90.5 182s107.833 59 196.5 59h690c69.333 0 119.166 -12.167 149.499 -36.5s45.5 -62.5 45.5 -114.5
c0 -14 -1.16699 -28.5 -3.5 -43.5l-7.5 -46.5l-190 -903c-18 -82 -48.5 -142.833 -91.5 -182.5s-108.167 -59.5 -195.5 -59.5h-690zM1174 1036c1.33301 7.33301 2.33301 13.667 3 19s1 10 1 14c0 31.333 -24 47 -72 47h-387c-27.333 0 -46.833 -5.5 -58.5 -16.5
s-20.834 -32.167 -27.501 -63.5l-148 -690c-2.66699 -13.333 -4 -22.333 -4 -27c0 -28.667 20 -43 60 -43h387c32.667 0 55.834 5.5 69.501 16.5s23.167 28.833 28.5 53.5zM1173 1510l-120 181l-204 -181h-283l404 370h216l219 -370h-232zM1325 1781l281 358h281l-340 -358
h-222z" />
    <glyph glyph-name=".notdef.026" unicode="&#x1ed1;" horiz-adv-x="1296" 
d="M295 0c-57.333 0 -98.667 9.83301 -124 29.5s-38 50.834 -38 93.501c0 19.333 3.33301 46 10 80l133 631c15.333 69.333 40.333 120.333 75 153s89 49 163 49h705c60 0 102.167 -9.83301 126.5 -29.5s36.5 -50.834 36.5 -93.501c0 -18.667 -3.33301 -45 -10 -79
l-133 -631c-14.667 -70 -39.5 -121.333 -74.5 -154s-90.167 -49 -165.5 -49h-704zM1063 731c2.66699 14 4 22.332 4 24.999c0 21.333 -18.333 32 -55 32h-406c-22 0 -37.333 -3.66699 -46 -11s-15 -22.666 -19 -45.999l-88 -422c-1.33301 -5.33301 -2.33301 -10 -3 -14
s-1 -8 -1 -12c0 -19.333 15 -29 45 -29h405c24.667 0 42.5 4.16699 53.5 12.5s18.5 22.5 22.5 42.5zM1076 1166l-120 181l-204 -181h-283l404 370h216l219 -370h-232zM1228 1437l281 358h281l-340 -358h-222z" />
    <glyph glyph-name=".notdef.093" unicode="&#x1ed2;" horiz-adv-x="1368" 
d="M340 0c-69.333 0 -119.499 12.332 -150.499 36.999s-46.5 62.334 -46.5 113.001c0 25.333 4.33301 56 13 92l190 903c18 82 48.167 142.667 90.5 182s107.833 59 196.5 59h690c69.333 0 119.166 -12.167 149.499 -36.5s45.5 -62.5 45.5 -114.5
c0 -14 -1.16699 -28.5 -3.5 -43.5l-7.5 -46.5l-190 -903c-18 -82 -48.5 -142.833 -91.5 -182.5s-108.167 -59.5 -195.5 -59.5h-690zM1174 1036c1.33301 7.33301 2.33301 13.667 3 19s1 10 1 14c0 31.333 -24 47 -72 47h-387c-27.333 0 -46.833 -5.5 -58.5 -16.5
s-20.834 -32.167 -27.501 -63.5l-148 -690c-2.66699 -13.333 -4 -22.333 -4 -27c0 -28.667 20 -43 60 -43h387c32.667 0 55.834 5.5 69.501 16.5s23.167 28.833 28.5 53.5zM1173 1510l-120 181l-204 -181h-283l404 370h216l219 -370h-232zM1391 1780l-210 361h255l156 -361
h-201z" />
    <glyph glyph-name=".notdef.027" unicode="&#x1ed3;" horiz-adv-x="1296" 
d="M295 0c-57.333 0 -98.667 9.83301 -124 29.5s-38 50.834 -38 93.501c0 19.333 3.33301 46 10 80l133 631c15.333 69.333 40.333 120.333 75 153s89 49 163 49h705c60 0 102.167 -9.83301 126.5 -29.5s36.5 -50.834 36.5 -93.501c0 -18.667 -3.33301 -45 -10 -79
l-133 -631c-14.667 -70 -39.5 -121.333 -74.5 -154s-90.167 -49 -165.5 -49h-704zM1063 731c2.66699 14 4 22.332 4 24.999c0 21.333 -18.333 32 -55 32h-406c-22 0 -37.333 -3.66699 -46 -11s-15 -22.666 -19 -45.999l-88 -422c-1.33301 -5.33301 -2.33301 -10 -3 -14
s-1 -8 -1 -12c0 -19.333 15 -29 45 -29h405c24.667 0 42.5 4.16699 53.5 12.5s18.5 22.5 22.5 42.5zM1076 1166l-120 181l-204 -181h-283l404 370h216l219 -370h-232zM1294 1436l-210 361h255l156 -361h-201z" />
    <glyph glyph-name=".notdef.091" unicode="&#x1ed4;" horiz-adv-x="1368" 
d="M340 0c-69.333 0 -119.499 12.332 -150.499 36.999s-46.5 62.334 -46.5 113.001c0 25.333 4.33301 56 13 92l190 903c18 82 48.167 142.667 90.5 182s107.833 59 196.5 59h690c69.333 0 119.166 -12.167 149.499 -36.5s45.5 -62.5 45.5 -114.5
c0 -14 -1.16699 -28.5 -3.5 -43.5l-7.5 -46.5l-190 -903c-18 -82 -48.5 -142.833 -91.5 -182.5s-108.167 -59.5 -195.5 -59.5h-690zM1174 1036c1.33301 7.33301 2.33301 13.667 3 19s1 10 1 14c0 31.333 -24 47 -72 47h-387c-27.333 0 -46.833 -5.5 -58.5 -16.5
s-20.834 -32.167 -27.501 -63.5l-148 -690c-2.66699 -13.333 -4 -22.333 -4 -27c0 -28.667 20 -43 60 -43h387c32.667 0 55.834 5.5 69.501 16.5s23.167 28.833 28.5 53.5zM1173 1510l-120 181l-204 -181h-283l404 370h216l219 -370h-232zM1566 1800
c-1.33301 0 -2.49902 -0.99707 -3.49902 -2.99707l-2.5 -5c0 -1.33301 -0.166992 -2.5 -0.5 -3.5s-0.5 -2.16699 -0.5 -3.5c-1.33301 -4 -2.5 -4.83301 -3.5 -2.5s-2.16699 1.83301 -3.5 -1.5c-2 -6 -3.66699 -12.333 -5 -19l-4 -20h-187l28 107
c16 75.333 62.333 113 139 113h21c5.33301 0 9.5 1.83301 12.5 5.5s5.5 8.16699 7.5 13.5c1.33301 7.33301 2.66602 12.666 3.99902 15.999s3 8.66602 5 15.999l2 10c0.666992 3.33301 1.66699 6.66602 3 9.99902c0 2.66699 0.166992 4.16699 0.5 4.5s0.833008 0.5 1.5 0.5
s1.16699 0.166992 1.5 0.5s0.833008 1.83301 1.5 4.5c0 2 0.5 3.66699 1.5 5s1.5 2.66602 1.5 4c-2.66699 -1.33301 -5 -2 -7 -2h-290l32 181h350c46 0 78.667 -8.33301 98 -25s29 -42.334 29 -77c0 -5.33301 -0.166992 -11.5 -0.5 -18.5s-0.833008 -13.5 -1.5 -19.5v-7
c0 -1.33301 -0.166992 -2.66602 -0.5 -4c-0.333008 -1.33301 -0.5 -2.66602 -0.5 -4l-36 -137c-10 -46 -27 -80.667 -51 -104s-59.667 -35 -107 -35h-35z" />
    <glyph glyph-name=".notdef.025" unicode="&#x1ed5;" horiz-adv-x="1296" 
d="M295 0c-57.333 0 -98.667 9.83301 -124 29.5s-38 50.834 -38 93.501c0 19.333 3.33301 46 10 80l133 631c15.333 69.333 40.333 120.333 75 153s89 49 163 49h705c60 0 102.167 -9.83301 126.5 -29.5s36.5 -50.834 36.5 -93.501c0 -18.667 -3.33301 -45 -10 -79
l-133 -631c-14.667 -70 -39.5 -121.333 -74.5 -154s-90.167 -49 -165.5 -49h-704zM1063 731c2.66699 14 4 22.332 4 24.999c0 21.333 -18.333 32 -55 32h-406c-22 0 -37.333 -3.66699 -46 -11s-15 -22.666 -19 -45.999l-88 -422c-1.33301 -5.33301 -2.33301 -10 -3 -14
s-1 -8 -1 -12c0 -19.333 15 -29 45 -29h405c24.667 0 42.5 4.16699 53.5 12.5s18.5 22.5 22.5 42.5zM1076 1166l-120 181l-204 -181h-283l404 370h216l219 -370h-232zM1469 1456c-1.33301 0 -2.49902 -0.99707 -3.49902 -2.99707l-2.5 -5
c0 -1.33301 -0.166992 -2.5 -0.5 -3.5s-0.5 -2.16699 -0.5 -3.5c-1.33301 -4 -2.5 -4.83301 -3.5 -2.5s-2.16699 1.83301 -3.5 -1.5c-2 -6 -3.66699 -12.333 -5 -19l-4 -20h-187l28 107c16 75.333 62.333 113 139 113h21c5.33301 0 9.5 1.83301 12.5 5.5
s5.5 8.16699 7.5 13.5c1.33301 7.33301 2.66602 12.666 3.99902 15.999s3 8.66602 5 15.999l2 10c0.666992 3.33301 1.66699 6.66602 3 9.99902c0 2.66699 0.166992 4.16699 0.5 4.5s0.833008 0.5 1.5 0.5s1.16699 0.166992 1.5 0.5s0.833008 1.83301 1.5 4.5
c0 2 0.5 3.66699 1.5 5s1.5 2.66602 1.5 3.99902c-2.66699 -1.33301 -5 -2 -7 -2h-290l32 181h350c46 0 78.667 -8.33301 98 -25s29 -42.334 29 -77.001c0 -5.33301 -0.166992 -11.5 -0.5 -18.5s-0.833008 -13.5 -1.5 -19.5v-7c0 -1.33301 -0.166992 -2.66602 -0.5 -3.99902
s-0.5 -2.66602 -0.5 -3.99902l-36 -137c-10 -46 -27 -80.667 -51 -104s-59.667 -35 -107 -35h-35z" />
    <glyph glyph-name=".notdef.090" unicode="&#x1ed6;" horiz-adv-x="1368" 
d="M340 0c-69.333 0 -119.499 12.332 -150.499 36.999s-46.5 62.334 -46.5 113.001c0 25.333 4.33301 56 13 92l190 903c18 82 48.167 142.667 90.5 182s107.833 59 196.5 59h690c69.333 0 119.166 -12.167 149.499 -36.5s45.5 -62.5 45.5 -114.5
c0 -14 -1.16699 -28.5 -3.5 -43.5l-7.5 -46.5l-190 -903c-18 -82 -48.5 -142.833 -91.5 -182.5s-108.167 -59.5 -195.5 -59.5h-690zM1174 1036c1.33301 7.33301 2.33301 13.667 3 19s1 10 1 14c0 31.333 -24 47 -72 47h-387c-27.333 0 -46.833 -5.5 -58.5 -16.5
s-20.834 -32.167 -27.501 -63.5l-148 -690c-2.66699 -13.333 -4 -22.333 -4 -27c0 -28.667 20 -43 60 -43h387c32.667 0 55.834 5.5 69.501 16.5s23.167 28.833 28.5 53.5zM1173 1510l-120 181l-204 -181h-283l404 370h216l219 -370h-232zM1477 2025
c-30.667 -30.667 -66.3301 -52.167 -106.997 -64.5s-77.334 -18.5 -110.001 -18.5c-36.667 0 -69.667 6 -99 18s-56.833 25.5 -82.5 40.5s-50.834 28.5 -75.501 40.5s-50.667 18 -78 18c-36 0 -74.167 -6.83301 -114.5 -20.5s-79.5 -38.167 -117.5 -73.5l34 214
c32.667 30.667 69.167 52.334 109.5 65c40.333 12.667 77.166 19 110.499 19c30.667 0 60.334 -6.33301 89.001 -19s56.5 -26 83.5 -40l80 -40.5c26.333 -13 52.833 -19.5 79.5 -19.5c40.667 0 79.667 6.66699 117 20s76.666 38 117.999 74z" />
    <glyph glyph-name=".notdef.024" unicode="&#x1ed7;" horiz-adv-x="1296" 
d="M295 0c-57.333 0 -98.667 9.83301 -124 29.5s-38 50.834 -38 93.501c0 19.333 3.33301 46 10 80l133 631c15.333 69.333 40.333 120.333 75 153s89 49 163 49h705c60 0 102.167 -9.83301 126.5 -29.5s36.5 -50.834 36.5 -93.501c0 -18.667 -3.33301 -45 -10 -79
l-133 -631c-14.667 -70 -39.5 -121.333 -74.5 -154s-90.167 -49 -165.5 -49h-704zM1063 731c2.66699 14 4 22.332 4 24.999c0 21.333 -18.333 32 -55 32h-406c-22 0 -37.333 -3.66699 -46 -11s-15 -22.666 -19 -45.999l-88 -422c-1.33301 -5.33301 -2.33301 -10 -3 -14
s-1 -8 -1 -12c0 -19.333 15 -29 45 -29h405c24.667 0 42.5 4.16699 53.5 12.5s18.5 22.5 22.5 42.5zM1076 1166l-120 181l-204 -181h-283l404 370h216l219 -370h-232zM1378 1681c-30.667 -30.667 -66.3301 -52.168 -106.997 -64.501s-77.334 -18.5 -110.001 -18.5
c-36.667 0 -69.667 6 -99 18s-56.833 25.5 -82.5 40.5s-50.834 28.5 -75.501 40.5s-50.667 18 -78 18c-36 0 -74.167 -6.83301 -114.5 -20.5s-79.5 -38.167 -117.5 -73.5l34 214c32.667 30.667 69.167 52.334 109.5 65.001s77.166 19 110.499 19
c30.667 0 60.334 -6.33301 89.001 -19s56.5 -26 83.5 -40l80 -40.5c26.333 -13 52.833 -19.5 79.5 -19.5c40.667 0 79.667 6.66699 117 20s76.666 38 117.999 74z" />
    <glyph glyph-name=".notdef.089" unicode="&#x1ed8;" horiz-adv-x="1368" 
d="M340 0c-69.333 0 -119.499 12.332 -150.499 36.999s-46.5 62.334 -46.5 113.001c0 25.333 4.33301 56 13 92l190 903c18 82 48.167 142.667 90.5 182s107.833 59 196.5 59h690c69.333 0 119.166 -12.167 149.499 -36.5s45.5 -62.5 45.5 -114.5
c0 -14 -1.16699 -28.5 -3.5 -43.5l-7.5 -46.5l-190 -903c-18 -82 -48.5 -142.833 -91.5 -182.5s-108.167 -59.5 -195.5 -59.5h-690zM1174 1036c1.33301 7.33301 2.33301 13.667 3 19s1 10 1 14c0 31.333 -24 47 -72 47h-387c-27.333 0 -46.833 -5.5 -58.5 -16.5
s-20.834 -32.167 -27.501 -63.5l-148 -690c-2.66699 -13.333 -4 -22.333 -4 -27c0 -28.667 20 -43 60 -43h387c32.667 0 55.834 5.5 69.501 16.5s23.167 28.833 28.5 53.5zM1173 1510l-120 181l-204 -181h-283l404 370h216l219 -370h-232zM479.001 -436l65 309h262l-65 -309
h-262z" />
    <glyph glyph-name=".notdef.023" unicode="&#x1ed9;" horiz-adv-x="1296" 
d="M295 0c-57.333 0 -98.667 9.83301 -124 29.5s-38 50.834 -38 93.501c0 19.333 3.33301 46 10 80l133 631c15.333 69.333 40.333 120.333 75 153s89 49 163 49h705c60 0 102.167 -9.83301 126.5 -29.5s36.5 -50.834 36.5 -93.501c0 -18.667 -3.33301 -45 -10 -79
l-133 -631c-14.667 -70 -39.5 -121.333 -74.5 -154s-90.167 -49 -165.5 -49h-704zM1063 731c2.66699 14 4 22.332 4 24.999c0 21.333 -18.333 32 -55 32h-406c-22 0 -37.333 -3.66699 -46 -11s-15 -22.666 -19 -45.999l-88 -422c-1.33301 -5.33301 -2.33301 -10 -3 -14
s-1 -8 -1 -12c0 -19.333 15 -29 45 -29h405c24.667 0 42.5 4.16699 53.5 12.5s18.5 22.5 22.5 42.5zM1076 1166l-120 181l-204 -181h-283l404 370h216l219 -370h-232zM452.999 -436.001l65 309h262l-65 -309h-262z" />
    <glyph glyph-name=".notdef.075" unicode="&#x1eda;" horiz-adv-x="1646" 
d="M340 0c-69.333 0 -119.499 12.332 -150.499 36.999s-46.5 62.334 -46.5 113.001c0 25.333 4.33301 56 13 92l190 903c18 82 48.167 142.667 90.5 182s107.833 59 196.5 59h690c69.333 0 119.166 -12.167 149.499 -36.5s45.5 -62.5 45.5 -114.5
c0 -14 -1.16699 -28.5 -3.5 -43.5l-7.5 -46.5l-190 -903c-18 -82 -48.5 -142.833 -91.5 -182.5s-108.167 -59.5 -195.5 -59.5h-690zM1174 1036c1.33301 7.33301 2.33301 13.667 3 19s1 10 1 14c0 31.333 -24 47 -72 47h-387c-27.333 0 -46.833 -5.5 -58.5 -16.5
s-20.834 -32.167 -27.501 -63.5l-148 -690c-2.66699 -13.333 -4 -22.333 -4 -27c0 -28.667 20 -43 60 -43h387c32.667 0 55.834 5.5 69.501 16.5s23.167 28.833 28.5 53.5zM1438 990l208 396h276l-242 -396h-242zM770.001 1510l281 358h281l-340 -358h-222z" />
    <glyph glyph-name=".notdef.009" unicode="&#x1edb;" horiz-adv-x="1459" 
d="M295 0c-57.333 0 -98.667 9.83301 -124 29.5s-38 50.834 -38 93.501c0 19.333 3.33301 46 10 80l133 631c15.333 69.333 40.333 120.333 75 153s89 49 163 49h705c60 0 102.167 -9.83301 126.5 -29.5s36.5 -50.834 36.5 -93.501c0 -18.667 -3.33301 -45 -10 -79
l-133 -631c-14.667 -70 -39.5 -121.333 -74.5 -154s-90.167 -49 -165.5 -49h-704zM1063 731c2.66699 14 4 22.332 4 24.999c0 21.333 -18.333 32 -55 32h-406c-22 0 -37.333 -3.66699 -46 -11s-15 -22.666 -19 -45.999l-88 -422c-1.33301 -5.33301 -2.33301 -10 -3 -14
s-1 -8 -1 -12c0 -19.333 15 -29 45 -29h405c24.667 0 42.5 4.16699 53.5 12.5s18.5 22.5 22.5 42.5zM1254 637.999l208 396h276l-242 -396h-242zM690.999 1166l281 358h281l-340 -358h-222z" />
    <glyph glyph-name=".notdef.076" unicode="&#x1edc;" horiz-adv-x="1646" 
d="M340 0c-69.333 0 -119.499 12.332 -150.499 36.999s-46.5 62.334 -46.5 113.001c0 25.333 4.33301 56 13 92l190 903c18 82 48.167 142.667 90.5 182s107.833 59 196.5 59h690c69.333 0 119.166 -12.167 149.499 -36.5s45.5 -62.5 45.5 -114.5
c0 -14 -1.16699 -28.5 -3.5 -43.5l-7.5 -46.5l-190 -903c-18 -82 -48.5 -142.833 -91.5 -182.5s-108.167 -59.5 -195.5 -59.5h-690zM1174 1036c1.33301 7.33301 2.33301 13.667 3 19s1 10 1 14c0 31.333 -24 47 -72 47h-387c-27.333 0 -46.833 -5.5 -58.5 -16.5
s-20.834 -32.167 -27.501 -63.5l-148 -690c-2.66699 -13.333 -4 -22.333 -4 -27c0 -28.667 20 -43 60 -43h387c32.667 0 55.834 5.5 69.501 16.5s23.167 28.833 28.5 53.5zM1438 990l208 396h276l-242 -396h-242zM934.001 1510l-210 361h255l156 -361h-201z" />
    <glyph glyph-name=".notdef.010" unicode="&#x1edd;" horiz-adv-x="1459" 
d="M295 0c-57.333 0 -98.667 9.83301 -124 29.5s-38 50.834 -38 93.501c0 19.333 3.33301 46 10 80l133 631c15.333 69.333 40.333 120.333 75 153s89 49 163 49h705c60 0 102.167 -9.83301 126.5 -29.5s36.5 -50.834 36.5 -93.501c0 -18.667 -3.33301 -45 -10 -79
l-133 -631c-14.667 -70 -39.5 -121.333 -74.5 -154s-90.167 -49 -165.5 -49h-704zM1063 731c2.66699 14 4 22.332 4 24.999c0 21.333 -18.333 32 -55 32h-406c-22 0 -37.333 -3.66699 -46 -11s-15 -22.666 -19 -45.999l-88 -422c-1.33301 -5.33301 -2.33301 -10 -3 -14
s-1 -8 -1 -12c0 -19.333 15 -29 45 -29h405c24.667 0 42.5 4.16699 53.5 12.5s18.5 22.5 22.5 42.5zM1254 637.999l208 396h276l-242 -396h-242zM850.999 1166l-210 361h255l156 -361h-201z" />
    <glyph glyph-name=".notdef.074" unicode="&#x1ede;" horiz-adv-x="1646" 
d="M340 0c-69.333 0 -119.499 12.332 -150.499 36.999s-46.5 62.334 -46.5 113.001c0 25.333 4.33301 56 13 92l190 903c18 82 48.167 142.667 90.5 182s107.833 59 196.5 59h690c69.333 0 119.166 -12.167 149.499 -36.5s45.5 -62.5 45.5 -114.5
c0 -14 -1.16699 -28.5 -3.5 -43.5l-7.5 -46.5l-190 -903c-18 -82 -48.5 -142.833 -91.5 -182.5s-108.167 -59.5 -195.5 -59.5h-690zM1174 1036c1.33301 7.33301 2.33301 13.667 3 19s1 10 1 14c0 31.333 -24 47 -72 47h-387c-27.333 0 -46.833 -5.5 -58.5 -16.5
s-20.834 -32.167 -27.501 -63.5l-148 -690c-2.66699 -13.333 -4 -22.333 -4 -27c0 -28.667 20 -43 60 -43h387c32.667 0 55.834 5.5 69.501 16.5s23.167 28.833 28.5 53.5zM1438 990l208 396h276l-242 -396h-242zM1094 1568c-1.33301 0 -2.49902 -0.99707 -3.49902 -2.99707
l-2.5 -5c0 -1.33301 -0.166992 -2.5 -0.5 -3.5s-0.5 -2.16699 -0.5 -3.5c-1.33301 -4 -2.5 -4.83301 -3.5 -2.5s-2.16699 1.83301 -3.5 -1.5c-2 -6 -3.66699 -12.333 -5 -19l-4 -20h-187l28 107c16 75.333 62.333 113 139 113h21c5.33301 0 9.5 1.83301 12.5 5.5
s5.5 8.16699 7.5 13.5c1.33301 7.33301 2.66602 12.666 3.99902 15.999s3 8.66602 5 15.999l2 10c0.666992 3.33301 1.66699 6.66602 3 9.99902c0 2.66699 0.166992 4.16699 0.5 4.5s0.833008 0.5 1.5 0.5s1.16699 0.166992 1.5 0.5s0.833008 1.83301 1.5 4.5
c0 2 0.5 3.66699 1.5 5s1.5 2.66602 1.5 3.99902c-2.66699 -1.33301 -5 -2 -7 -2h-290l32 181h350c46 0 78.667 -8.33301 98 -25s29 -42.334 29 -77.001c0 -5.33301 -0.166992 -11.5 -0.5 -18.5s-0.833008 -13.5 -1.5 -19.5v-7c0 -1.33301 -0.166992 -2.66602 -0.5 -3.99902
s-0.5 -2.66602 -0.5 -3.99902l-36 -137c-10 -46 -27 -80.667 -51 -104s-59.667 -35 -107 -35h-35z" />
    <glyph glyph-name=".notdef.008" unicode="&#x1edf;" horiz-adv-x="1459" 
d="M295 0c-57.333 0 -98.667 9.83301 -124 29.5s-38 50.834 -38 93.501c0 19.333 3.33301 46 10 80l133 631c15.333 69.333 40.333 120.333 75 153s89 49 163 49h705c60 0 102.167 -9.83301 126.5 -29.5s36.5 -50.834 36.5 -93.501c0 -18.667 -3.33301 -45 -10 -79
l-133 -631c-14.667 -70 -39.5 -121.333 -74.5 -154s-90.167 -49 -165.5 -49h-704zM1063 731c2.66699 14 4 22.332 4 24.999c0 21.333 -18.333 32 -55 32h-406c-22 0 -37.333 -3.66699 -46 -11s-15 -22.666 -19 -45.999l-88 -422c-1.33301 -5.33301 -2.33301 -10 -3 -14
s-1 -8 -1 -12c0 -19.333 15 -29 45 -29h405c24.667 0 42.5 4.16699 53.5 12.5s18.5 22.5 22.5 42.5zM1254 637.999l208 396h276l-242 -396h-242zM986.999 1221c-1.33301 0 -2.49902 -0.99707 -3.49902 -2.99707l-2.5 -5c0 -1.33301 -0.166992 -2.5 -0.5 -3.5
s-0.5 -2.16699 -0.5 -3.5c-1.33301 -4 -2.5 -4.83301 -3.5 -2.5s-2.16699 1.83301 -3.5 -1.5c-2 -6 -3.66699 -12.333 -5 -19l-4 -20h-187l28 107c16 75.333 62.333 113 139 113h21c5.33301 0 9.5 1.83301 12.5 5.5s5.5 8.16699 7.5 13.5
c1.33301 7.33301 2.66602 12.666 3.99902 15.999s3 8.66602 5 15.999l2 10c0.666992 3.33301 1.66699 6.66602 3 9.99902c0 2.66699 0.166992 4.16699 0.5 4.5s0.833008 0.5 1.5 0.5s1.16699 0.166992 1.5 0.5s0.833008 1.83301 1.5 4.5c0 2 0.5 3.66699 1.5 5
s1.5 2.66602 1.5 3.99902c-2.66699 -1.33301 -5 -2 -7 -2h-290l32 181h350c46 0 78.667 -8.33301 98 -25s29 -42.334 29 -77.001c0 -5.33301 -0.166992 -11.5 -0.5 -18.5s-0.833008 -13.5 -1.5 -19.5v-7c0 -1.33301 -0.166992 -2.66602 -0.5 -3.99902
s-0.5 -2.66602 -0.5 -3.99902l-36 -137c-10 -46 -27 -80.667 -51 -104s-59.667 -35 -107 -35h-35z" />
    <glyph glyph-name=".notdef.073" unicode="&#x1ee0;" horiz-adv-x="1646" 
d="M340 0c-69.333 0 -119.499 12.332 -150.499 36.999s-46.5 62.334 -46.5 113.001c0 25.333 4.33301 56 13 92l190 903c18 82 48.167 142.667 90.5 182s107.833 59 196.5 59h690c69.333 0 119.166 -12.167 149.499 -36.5s45.5 -62.5 45.5 -114.5
c0 -14 -1.16699 -28.5 -3.5 -43.5l-7.5 -46.5l-190 -903c-18 -82 -48.5 -142.833 -91.5 -182.5s-108.167 -59.5 -195.5 -59.5h-690zM1174 1036c1.33301 7.33301 2.33301 13.667 3 19s1 10 1 14c0 31.333 -24 47 -72 47h-387c-27.333 0 -46.833 -5.5 -58.5 -16.5
s-20.834 -32.167 -27.501 -63.5l-148 -690c-2.66699 -13.333 -4 -22.333 -4 -27c0 -28.667 20 -43 60 -43h387c32.667 0 55.834 5.5 69.501 16.5s23.167 28.833 28.5 53.5zM1438 990l208 396h276l-242 -396h-242zM1374 1596
c-30.667 -30.667 -66.3301 -52.168 -106.997 -64.501s-77.334 -18.5 -110.001 -18.5c-36.667 0 -69.667 6 -99 18s-56.833 25.5 -82.5 40.5s-50.834 28.5 -75.501 40.5s-50.667 18 -78 18c-36 0 -74.167 -6.83301 -114.5 -20.5s-79.5 -38.167 -117.5 -73.5l34 214
c32.667 30.667 69.167 52.334 109.5 65.001s77.166 19 110.499 19c30.667 0 60.334 -6.33301 89.001 -19s56.5 -26 83.5 -40l80 -40.5c26.333 -13 52.833 -19.5 79.5 -19.5c40.667 0 79.667 6.66699 117 20s76.666 38 117.999 74z" />
    <glyph glyph-name=".notdef.007" unicode="&#x1ee1;" horiz-adv-x="1459" 
d="M295 0c-57.333 0 -98.667 9.83301 -124 29.5s-38 50.834 -38 93.501c0 19.333 3.33301 46 10 80l133 631c15.333 69.333 40.333 120.333 75 153s89 49 163 49h705c60 0 102.167 -9.83301 126.5 -29.5s36.5 -50.834 36.5 -93.501c0 -18.667 -3.33301 -45 -10 -79
l-133 -631c-14.667 -70 -39.5 -121.333 -74.5 -154s-90.167 -49 -165.5 -49h-704zM1063 731c2.66699 14 4 22.332 4 24.999c0 21.333 -18.333 32 -55 32h-406c-22 0 -37.333 -3.66699 -46 -11s-15 -22.666 -19 -45.999l-88 -422c-1.33301 -5.33301 -2.33301 -10 -3 -14
s-1 -8 -1 -12c0 -19.333 15 -29 45 -29h405c24.667 0 42.5 4.16699 53.5 12.5s18.5 22.5 22.5 42.5zM1254 637.999l208 396h276l-242 -396h-242zM1308 1248c-30.667 -30.667 -66.3301 -52.168 -106.997 -64.501s-77.334 -18.5 -110.001 -18.5c-36.667 0 -69.667 6 -99 18
s-56.833 25.5 -82.5 40.5s-50.834 28.5 -75.501 40.5s-50.667 18 -78 18c-36 0 -74.167 -6.83301 -114.5 -20.5s-79.5 -38.167 -117.5 -73.5l34 214c32.667 30.667 69.167 52.334 109.5 65.001s77.166 19 110.499 19c30.667 0 60.334 -6.33301 89.001 -19s56.5 -26 83.5 -40
l80 -40.5c26.333 -13 52.833 -19.5 79.5 -19.5c40.667 0 79.667 6.66699 117 20s76.666 38 117.999 74z" />
    <glyph glyph-name=".notdef.072" unicode="&#x1ee2;" horiz-adv-x="1646" 
d="M340 0c-69.333 0 -119.499 12.332 -150.499 36.999s-46.5 62.334 -46.5 113.001c0 25.333 4.33301 56 13 92l190 903c18 82 48.167 142.667 90.5 182s107.833 59 196.5 59h690c69.333 0 119.166 -12.167 149.499 -36.5s45.5 -62.5 45.5 -114.5
c0 -14 -1.16699 -28.5 -3.5 -43.5l-7.5 -46.5l-190 -903c-18 -82 -48.5 -142.833 -91.5 -182.5s-108.167 -59.5 -195.5 -59.5h-690zM1174 1036c1.33301 7.33301 2.33301 13.667 3 19s1 10 1 14c0 31.333 -24 47 -72 47h-387c-27.333 0 -46.833 -5.5 -58.5 -16.5
s-20.834 -32.167 -27.501 -63.5l-148 -690c-2.66699 -13.333 -4 -22.333 -4 -27c0 -28.667 20 -43 60 -43h387c32.667 0 55.834 5.5 69.501 16.5s23.167 28.833 28.5 53.5zM1438 990l208 396h276l-242 -396h-242zM479.001 -436l65 309h262l-65 -309h-262z" />
    <glyph glyph-name=".notdef.006" unicode="&#x1ee3;" horiz-adv-x="1459" 
d="M295 0c-57.333 0 -98.667 9.83301 -124 29.5s-38 50.834 -38 93.501c0 19.333 3.33301 46 10 80l133 631c15.333 69.333 40.333 120.333 75 153s89 49 163 49h705c60 0 102.167 -9.83301 126.5 -29.5s36.5 -50.834 36.5 -93.501c0 -18.667 -3.33301 -45 -10 -79
l-133 -631c-14.667 -70 -39.5 -121.333 -74.5 -154s-90.167 -49 -165.5 -49h-704zM1063 731c2.66699 14 4 22.332 4 24.999c0 21.333 -18.333 32 -55 32h-406c-22 0 -37.333 -3.66699 -46 -11s-15 -22.666 -19 -45.999l-88 -422c-1.33301 -5.33301 -2.33301 -10 -3 -14
s-1 -8 -1 -12c0 -19.333 15 -29 45 -29h405c24.667 0 42.5 4.16699 53.5 12.5s18.5 22.5 22.5 42.5zM1254 637.999l208 396h276l-242 -396h-242zM452.999 -436.001l65 309h262l-65 -309h-262z" />
    <glyph glyph-name=".notdef.084" unicode="&#x1ee4;" horiz-adv-x="1382" 
d="M346 0c-70.667 0 -120.998 12.333 -150.998 37s-45 63 -45 115c0 13.333 0.666992 27.5 2 42.5s4 30.833 8 47.5l241 1144h312l-219 -1036c-4.66699 -16 -7 -28.333 -7 -37c0 -14.667 4.83301 -24.5 14.5 -29.5s25.5 -7.5 47.5 -7.5h409c27.333 0 47.166 4.5 59.499 13.5
s22.166 29.167 29.499 60.5l219 1036h299l-242 -1144c-18 -82 -48.5 -142.833 -91.5 -182.5s-108.167 -59.5 -195.5 -59.5h-690zM479.002 -436l65 309h262l-65 -309h-262z" />
    <glyph glyph-name=".notdef.018" unicode="&#x1ee5;" horiz-adv-x="1311" 
d="M928 0l22.001 111c-26 -40 -55 -68.5 -87 -85.5s-69.667 -25.5 -113 -25.5h-451c-54.667 0 -95.334 9.5 -122.001 28.5s-40 51.167 -40 96.5c0 20.667 3.33301 46.667 10 78l177 833h286l-155 -731c-2.66699 -13.333 -4 -22 -4 -26c0 -22 16.333 -33 49 -33h411
c22 0 37.833 4 47.5 12s17.167 23.667 22.5 47l156 731h286l-219 -1036h-276zM453.001 -436l65 309h262l-65 -309h-262z" />
    <glyph glyph-name=".notdef.086" unicode="&#x1ee6;" horiz-adv-x="1382" 
d="M346 0c-70.667 0 -120.998 12.333 -150.998 37s-45 63 -45 115c0 13.333 0.666992 27.5 2 42.5s4 30.833 8 47.5l241 1144h312l-219 -1036c-4.66699 -16 -7 -28.333 -7 -37c0 -14.667 4.83301 -24.5 14.5 -29.5s25.5 -7.5 47.5 -7.5h409c27.333 0 47.166 4.5 59.499 13.5
s22.166 29.167 29.499 60.5l219 1036h299l-242 -1144c-18 -82 -48.5 -142.833 -91.5 -182.5s-108.167 -59.5 -195.5 -59.5h-690zM1125 1568c-1.33301 0 -2.49902 -0.99707 -3.49902 -2.99707l-2.5 -5c0 -1.33301 -0.166992 -2.5 -0.5 -3.5s-0.5 -2.16699 -0.5 -3.5
c-1.33301 -4 -2.5 -4.83301 -3.5 -2.5s-2.16699 1.83301 -3.5 -1.5c-2 -6 -3.66699 -12.333 -5 -19l-4 -20h-187l28 107c16 75.333 62.333 113 139 113h21c5.33301 0 9.5 1.83301 12.5 5.5s5.5 8.16699 7.5 13.5c1.33301 7.33301 2.66602 12.666 3.99902 15.999
s3 8.66602 5 15.999l2 10c0.666992 3.33301 1.66699 6.66602 3 9.99902c0 2.66699 0.166992 4.16699 0.5 4.5s0.833008 0.5 1.5 0.5s1.16699 0.166992 1.5 0.5s0.833008 1.83301 1.5 4.5c0 2 0.5 3.66699 1.5 5s1.5 2.66602 1.5 3.99902c-2.66699 -1.33301 -5 -2 -7 -2h-290
l32 181h350c46 0 78.667 -8.33301 98 -25s29 -42.334 29 -77.001c0 -5.33301 -0.166992 -11.5 -0.5 -18.5s-0.833008 -13.5 -1.5 -19.5v-7c0 -1.33301 -0.166992 -2.66602 -0.5 -3.99902s-0.5 -2.66602 -0.5 -3.99902l-36 -137c-10 -46 -27 -80.667 -51 -104
s-59.667 -35 -107 -35h-35z" />
    <glyph glyph-name=".notdef.020" unicode="&#x1ee7;" horiz-adv-x="1311" 
d="M928 0l22.001 111c-26 -40 -55 -68.5 -87 -85.5s-69.667 -25.5 -113 -25.5h-451c-54.667 0 -95.334 9.5 -122.001 28.5s-40 51.167 -40 96.5c0 20.667 3.33301 46.667 10 78l177 833h286l-155 -731c-2.66699 -13.333 -4 -22 -4 -26c0 -22 16.333 -33 49 -33h411
c22 0 37.833 4 47.5 12s17.167 23.667 22.5 47l156 731h286l-219 -1036h-276zM999.001 1221c-1.33301 0 -2.49902 -0.99707 -3.49902 -2.99707l-2.5 -5c0 -1.33301 -0.166992 -2.5 -0.5 -3.5s-0.5 -2.16699 -0.5 -3.5c-1.33301 -4 -2.5 -4.83301 -3.5 -2.5
s-2.16699 1.83301 -3.5 -1.5c-2 -6 -3.66699 -12.333 -5 -19l-4 -20h-187l28 107c16 75.333 62.333 113 139 113h21c5.33301 0 9.5 1.83301 12.5 5.5s5.5 8.16699 7.5 13.5c1.33301 7.33301 2.66602 12.666 3.99902 15.999s3 8.66602 5 15.999l2 10
c0.666992 3.33301 1.66699 6.66602 3 9.99902c0 2.66699 0.166992 4.16699 0.5 4.5s0.833008 0.5 1.5 0.5s1.16699 0.166992 1.5 0.5s0.833008 1.83301 1.5 4.5c0 2 0.5 3.66699 1.5 5s1.5 2.66602 1.5 3.99902c-2.66699 -1.33301 -5 -2 -7 -2h-290l32 181h350
c46 0 78.667 -8.33301 98 -25s29 -42.334 29 -77.001c0 -5.33301 -0.166992 -11.5 -0.5 -18.5s-0.833008 -13.5 -1.5 -19.5v-7c0 -1.33301 -0.166992 -2.66602 -0.5 -3.99902s-0.5 -2.66602 -0.5 -3.99902l-36 -137c-10 -46 -27 -80.667 -51 -104s-59.667 -35 -107 -35h-35z
" />
    <glyph glyph-name=".notdef.081" unicode="&#x1ee8;" horiz-adv-x="1669" 
d="M346 0c-70.667 0 -120.998 12.333 -150.998 37s-45 63 -45 115c0 13.333 0.666992 27.5 2 42.5s4 30.833 8 47.5l241 1144h312l-219 -1036c-4.66699 -16 -7 -28.333 -7 -37c0 -14.667 4.83301 -24.5 14.5 -29.5s25.5 -7.5 47.5 -7.5h409c27.333 0 47.166 4.5 59.499 13.5
s22.166 29.167 29.499 60.5l219 1036h299l-242 -1144c-18 -82 -48.5 -142.833 -91.5 -182.5s-108.167 -59.5 -195.5 -59.5h-690zM1463 990l208 396h276l-242 -396h-242zM770.002 1510l281 358h281l-340 -358h-222z" />
    <glyph glyph-name=".notdef.015" unicode="&#x1ee9;" horiz-adv-x="1499" 
d="M928 0l22.001 111c-26 -40 -55 -68.5 -87 -85.5s-69.667 -25.5 -113 -25.5h-451c-54.667 0 -95.334 9.5 -122.001 28.5s-40 51.167 -40 96.5c0 20.667 3.33301 46.667 10 78l177 833h286l-155 -731c-2.66699 -13.333 -4 -22 -4 -26c0 -22 16.333 -33 49 -33h411
c22 0 37.833 4 47.5 12s17.167 23.667 22.5 47l156 731h286l-219 -1036h-276zM1291 638l208 396h276l-242 -396h-242zM704.001 1166l281 358h281l-340 -358h-222z" />
    <glyph glyph-name=".notdef.082" unicode="&#x1eea;" horiz-adv-x="1669" 
d="M346 0c-70.667 0 -120.998 12.333 -150.998 37s-45 63 -45 115c0 13.333 0.666992 27.5 2 42.5s4 30.833 8 47.5l241 1144h312l-219 -1036c-4.66699 -16 -7 -28.333 -7 -37c0 -14.667 4.83301 -24.5 14.5 -29.5s25.5 -7.5 47.5 -7.5h409c27.333 0 47.166 4.5 59.499 13.5
s22.166 29.167 29.499 60.5l219 1036h299l-242 -1144c-18 -82 -48.5 -142.833 -91.5 -182.5s-108.167 -59.5 -195.5 -59.5h-690zM1463 990l208 396h276l-242 -396h-242zM941.002 1510l-210 361h255l156 -361h-201z" />
    <glyph glyph-name=".notdef.016" unicode="&#x1eeb;" horiz-adv-x="1499" 
d="M928 0l22.001 111c-26 -40 -55 -68.5 -87 -85.5s-69.667 -25.5 -113 -25.5h-451c-54.667 0 -95.334 9.5 -122.001 28.5s-40 51.167 -40 96.5c0 20.667 3.33301 46.667 10 78l177 833h286l-155 -731c-2.66699 -13.333 -4 -22 -4 -26c0 -22 16.333 -33 49 -33h411
c22 0 37.833 4 47.5 12s17.167 23.667 22.5 47l156 731h286l-219 -1036h-276zM1291 638l208 396h276l-242 -396h-242zM830.001 1166l-210 361h255l156 -361h-201z" />
    <glyph glyph-name=".notdef.080" unicode="&#x1eec;" horiz-adv-x="1669" 
d="M346 0c-70.667 0 -120.998 12.333 -150.998 37s-45 63 -45 115c0 13.333 0.666992 27.5 2 42.5s4 30.833 8 47.5l241 1144h312l-219 -1036c-4.66699 -16 -7 -28.333 -7 -37c0 -14.667 4.83301 -24.5 14.5 -29.5s25.5 -7.5 47.5 -7.5h409c27.333 0 47.166 4.5 59.499 13.5
s22.166 29.167 29.499 60.5l219 1036h299l-242 -1144c-18 -82 -48.5 -142.833 -91.5 -182.5s-108.167 -59.5 -195.5 -59.5h-690zM1463 990l208 396h276l-242 -396h-242zM1125 1568c-1.33301 0 -2.49902 -0.99707 -3.49902 -2.99707l-2.5 -5
c0 -1.33301 -0.166992 -2.5 -0.5 -3.5s-0.5 -2.16699 -0.5 -3.5c-1.33301 -4 -2.5 -4.83301 -3.5 -2.5s-2.16699 1.83301 -3.5 -1.5c-2 -6 -3.66699 -12.333 -5 -19l-4 -20h-187l28 107c16 75.333 62.333 113 139 113h21c5.33301 0 9.5 1.83301 12.5 5.5
s5.5 8.16699 7.5 13.5c1.33301 7.33301 2.66602 12.666 3.99902 15.999s3 8.66602 5 15.999l2 10c0.666992 3.33301 1.66699 6.66602 3 9.99902c0 2.66699 0.166992 4.16699 0.5 4.5s0.833008 0.5 1.5 0.5s1.16699 0.166992 1.5 0.5s0.833008 1.83301 1.5 4.5
c0 2 0.5 3.66699 1.5 5s1.5 2.66602 1.5 3.99902c-2.66699 -1.33301 -5 -2 -7 -2h-290l32 181h350c46 0 78.667 -8.33301 98 -25s29 -42.334 29 -77.001c0 -5.33301 -0.166992 -11.5 -0.5 -18.5s-0.833008 -13.5 -1.5 -19.5v-7c0 -1.33301 -0.166992 -2.66602 -0.5 -3.99902
s-0.5 -2.66602 -0.5 -3.99902l-36 -137c-10 -46 -27 -80.667 -51 -104s-59.667 -35 -107 -35h-35z" />
    <glyph glyph-name=".notdef.014" unicode="&#x1eed;" horiz-adv-x="1499" 
d="M928 0l22.001 111c-26 -40 -55 -68.5 -87 -85.5s-69.667 -25.5 -113 -25.5h-451c-54.667 0 -95.334 9.5 -122.001 28.5s-40 51.167 -40 96.5c0 20.667 3.33301 46.667 10 78l177 833h286l-155 -731c-2.66699 -13.333 -4 -22 -4 -26c0 -22 16.333 -33 49 -33h411
c22 0 37.833 4 47.5 12s17.167 23.667 22.5 47l156 731h286l-219 -1036h-276zM1291 638l208 396h276l-242 -396h-242zM999.001 1221c-1.33301 0 -2.49902 -0.99707 -3.49902 -2.99707l-2.5 -5c0 -1.33301 -0.166992 -2.5 -0.5 -3.5s-0.5 -2.16699 -0.5 -3.5
c-1.33301 -4 -2.5 -4.83301 -3.5 -2.5s-2.16699 1.83301 -3.5 -1.5c-2 -6 -3.66699 -12.333 -5 -19l-4 -20h-187l28 107c16 75.333 62.333 113 139 113h21c5.33301 0 9.5 1.83301 12.5 5.5s5.5 8.16699 7.5 13.5c1.33301 7.33301 2.66602 12.666 3.99902 15.999
s3 8.66602 5 15.999l2 10c0.666992 3.33301 1.66699 6.66602 3 9.99902c0 2.66699 0.166992 4.16699 0.5 4.5s0.833008 0.5 1.5 0.5s1.16699 0.166992 1.5 0.5s0.833008 1.83301 1.5 4.5c0 2 0.5 3.66699 1.5 5s1.5 2.66602 1.5 3.99902c-2.66699 -1.33301 -5 -2 -7 -2h-290
l32 181h350c46 0 78.667 -8.33301 98 -25s29 -42.334 29 -77.001c0 -5.33301 -0.166992 -11.5 -0.5 -18.5s-0.833008 -13.5 -1.5 -19.5v-7c0 -1.33301 -0.166992 -2.66602 -0.5 -3.99902s-0.5 -2.66602 -0.5 -3.99902l-36 -137c-10 -46 -27 -80.667 -51 -104
s-59.667 -35 -107 -35h-35z" />
    <glyph glyph-name=".notdef.079" unicode="&#x1eee;" horiz-adv-x="1669" 
d="M346 0c-70.667 0 -120.998 12.333 -150.998 37s-45 63 -45 115c0 13.333 0.666992 27.5 2 42.5s4 30.833 8 47.5l241 1144h312l-219 -1036c-4.66699 -16 -7 -28.333 -7 -37c0 -14.667 4.83301 -24.5 14.5 -29.5s25.5 -7.5 47.5 -7.5h409c27.333 0 47.166 4.5 59.499 13.5
s22.166 29.167 29.499 60.5l219 1036h299l-242 -1144c-18 -82 -48.5 -142.833 -91.5 -182.5s-108.167 -59.5 -195.5 -59.5h-690zM1463 990l208 396h276l-242 -396h-242zM1391 1596c-30.667 -30.667 -66.3301 -52.168 -106.997 -64.501s-77.334 -18.5 -110.001 -18.5
c-36.667 0 -69.667 6 -99 18s-56.833 25.5 -82.5 40.5s-50.834 28.5 -75.501 40.5s-50.667 18 -78 18c-36 0 -74.167 -6.83301 -114.5 -20.5s-79.5 -38.167 -117.5 -73.5l34 214c32.667 30.667 69.167 52.334 109.5 65.001s77.166 19 110.499 19
c30.667 0 60.334 -6.33301 89.001 -19s56.5 -26 83.5 -40l80 -40.5c26.333 -13 52.833 -19.5 79.5 -19.5c40.667 0 79.667 6.66699 117 20s76.666 38 117.999 74z" />
    <glyph glyph-name=".notdef.013" unicode="&#x1eef;" horiz-adv-x="1499" 
d="M928 0l22.001 111c-26 -40 -55 -68.5 -87 -85.5s-69.667 -25.5 -113 -25.5h-451c-54.667 0 -95.334 9.5 -122.001 28.5s-40 51.167 -40 96.5c0 20.667 3.33301 46.667 10 78l177 833h286l-155 -731c-2.66699 -13.333 -4 -22 -4 -26c0 -22 16.333 -33 49 -33h411
c22 0 37.833 4 47.5 12s17.167 23.667 22.5 47l156 731h286l-219 -1036h-276zM1291 638l208 396h276l-242 -396h-242zM1270 1249c-30.667 -30.667 -66.3301 -52.168 -106.997 -64.501s-77.334 -18.5 -110.001 -18.5c-36.667 0 -69.667 6 -99 18s-56.833 25.5 -82.5 40.5
s-50.834 28.5 -75.501 40.5s-50.667 18 -78 18c-36 0 -74.167 -6.83301 -114.5 -20.5s-79.5 -38.167 -117.5 -73.5l34 214c32.667 30.667 69.167 52.334 109.5 65.001s77.166 19 110.499 19c30.667 0 60.334 -6.33301 89.001 -19s56.5 -26 83.5 -40l80 -40.5
c26.333 -13 52.833 -19.5 79.5 -19.5c40.667 0 79.667 6.66699 117 20s76.666 38 117.999 74z" />
    <glyph glyph-name=".notdef.078" unicode="&#x1ef0;" horiz-adv-x="1669" 
d="M346 0c-70.667 0 -120.998 12.333 -150.998 37s-45 63 -45 115c0 13.333 0.666992 27.5 2 42.5s4 30.833 8 47.5l241 1144h312l-219 -1036c-4.66699 -16 -7 -28.333 -7 -37c0 -14.667 4.83301 -24.5 14.5 -29.5s25.5 -7.5 47.5 -7.5h409c27.333 0 47.166 4.5 59.499 13.5
s22.166 29.167 29.499 60.5l219 1036h299l-242 -1144c-18 -82 -48.5 -142.833 -91.5 -182.5s-108.167 -59.5 -195.5 -59.5h-690zM1463 990l208 396h276l-242 -396h-242zM479.002 -436l65 309h262l-65 -309h-262z" />
    <glyph glyph-name=".notdef.012" unicode="&#x1ef1;" horiz-adv-x="1499" 
d="M928 0l22.001 111c-26 -40 -55 -68.5 -87 -85.5s-69.667 -25.5 -113 -25.5h-451c-54.667 0 -95.334 9.5 -122.001 28.5s-40 51.167 -40 96.5c0 20.667 3.33301 46.667 10 78l177 833h286l-155 -731c-2.66699 -13.333 -4 -22 -4 -26c0 -22 16.333 -33 49 -33h411
c22 0 37.833 4 47.5 12s17.167 23.667 22.5 47l156 731h286l-219 -1036h-276zM1291 638l208 396h276l-242 -396h-242zM453.001 -436l65 309h262l-65 -309h-262z" />
    <glyph glyph-name=".notdef.071" unicode="&#x1ef2;" horiz-adv-x="1264" 
d="M475 0l121 571l-277 815h326l170 -546l402 546h311l-621 -815l-121 -571h-311zM845 1510l-210 361h255l156 -361h-201z" />
    <glyph glyph-name=".notdef.005" unicode="&#x1ef3;" horiz-adv-x="1249" 
d="M31 -434l52.9971 247.998h688c23.333 0 39.5 4 48.5 12s16.167 23.667 21.5 47l28 127h-589c-57.333 0 -98.666 9.83301 -123.999 29.5s-38 50.834 -38 93.501c0 19.333 3.33301 46 10 80l176 833h287l-158 -743c-1.33301 -5.33301 -2.33301 -10.166 -3 -14.499
s-1 -8.5 -1 -12.5c0 -22 16.333 -33 49 -33h441l170 803h288l-270 -1267c-15.333 -70 -40.666 -121.333 -75.999 -154s-90.666 -49 -165.999 -49h-835zM782.997 1163l-210 361h255l156 -361h-201z" />
    <glyph glyph-name=".notdef.067" unicode="&#x1ef4;" horiz-adv-x="1264" 
d="M475 0l121 571l-277 815h326l170 -546l402 546h311l-621 -815l-121 -571h-311zM414 -436l65 309h262l-65 -309h-262z" />
    <glyph glyph-name=".notdef.001" unicode="&#x1ef5;" horiz-adv-x="1249" 
d="M31 -434l52.9971 247.998h688c23.333 0 39.5 4 48.5 12s16.167 23.667 21.5 47l28 127h-589c-57.333 0 -98.666 9.83301 -123.999 29.5s-38 50.834 -38 93.501c0 19.333 3.33301 46 10 80l176 833h287l-158 -743c-1.33301 -5.33301 -2.33301 -10.166 -3 -14.499
s-1 -8.5 -1 -12.5c0 -22 16.333 -33 49 -33h441l170 803h288l-270 -1267c-15.333 -70 -40.666 -121.333 -75.999 -154s-90.666 -49 -165.999 -49h-835zM1168 -436.002l65 309h262l-65 -309h-262z" />
    <glyph glyph-name=".notdef.069" unicode="&#x1ef6;" horiz-adv-x="1264" 
d="M475 0l121 571l-277 815h326l170 -546l402 546h311l-621 -815l-121 -571h-311zM1035 1568c-1.33301 0 -2.49902 -0.99707 -3.49902 -2.99707l-2.5 -5c0 -1.33301 -0.166992 -2.5 -0.5 -3.5s-0.5 -2.16699 -0.5 -3.5c-1.33301 -4 -2.5 -4.83301 -3.5 -2.5
s-2.16699 1.83301 -3.5 -1.5c-2 -6 -3.66699 -12.333 -5 -19l-4 -20h-187l28 107c16 75.333 62.333 113 139 113h21c5.33301 0 9.5 1.83301 12.5 5.5s5.5 8.16699 7.5 13.5c1.33301 7.33301 2.66602 12.666 3.99902 15.999s3 8.66602 5 15.999l2 10
c0.666992 3.33301 1.66699 6.66602 3 9.99902c0 2.66699 0.166992 4.16699 0.5 4.5s0.833008 0.5 1.5 0.5s1.16699 0.166992 1.5 0.5s0.833008 1.83301 1.5 4.5c0 2 0.5 3.66699 1.5 5s1.5 2.66602 1.5 3.99902c-2.66699 -1.33301 -5 -2 -7 -2h-290l32 181h350
c46 0 78.667 -8.33301 98 -25s29 -42.334 29 -77.001c0 -5.33301 -0.166992 -11.5 -0.5 -18.5s-0.833008 -13.5 -1.5 -19.5v-7c0 -1.33301 -0.166992 -2.66602 -0.5 -3.99902s-0.5 -2.66602 -0.5 -3.99902l-36 -137c-10 -46 -27 -80.667 -51 -104s-59.667 -35 -107 -35h-35z
" />
    <glyph glyph-name=".notdef.003" unicode="&#x1ef7;" horiz-adv-x="1249" 
d="M31 -434l52.9971 247.998h688c23.333 0 39.5 4 48.5 12s16.167 23.667 21.5 47l28 127h-589c-57.333 0 -98.666 9.83301 -123.999 29.5s-38 50.834 -38 93.501c0 19.333 3.33301 46 10 80l176 833h287l-158 -743c-1.33301 -5.33301 -2.33301 -10.166 -3 -14.499
s-1 -8.5 -1 -12.5c0 -22 16.333 -33 49 -33h441l170 803h288l-270 -1267c-15.333 -70 -40.666 -121.333 -75.999 -154s-90.666 -49 -165.999 -49h-835zM962.997 1221c-1.33301 0 -2.49902 -0.99707 -3.49902 -2.99707l-2.5 -5c0 -1.33301 -0.166992 -2.5 -0.5 -3.5
s-0.5 -2.16699 -0.5 -3.5c-1.33301 -4 -2.5 -4.83301 -3.5 -2.5s-2.16699 1.83301 -3.5 -1.5c-2 -6 -3.66699 -12.333 -5 -19l-4 -20h-187l28 107c16 75.333 62.333 113 139 113h21c5.33301 0 9.5 1.83301 12.5 5.5s5.5 8.16699 7.5 13.5
c1.33301 7.33301 2.66602 12.666 3.99902 15.999s3 8.66602 5 15.999l2 10c0.666992 3.33301 1.66699 6.66602 3 9.99902c0 2.66699 0.166992 4.16699 0.5 4.5s0.833008 0.5 1.5 0.5s1.16699 0.166992 1.5 0.5s0.833008 1.83301 1.5 4.5c0 2 0.5 3.66699 1.5 5
s1.5 2.66602 1.5 3.99902c-2.66699 -1.33301 -5 -2 -7 -2h-290l32 181h350c46 0 78.667 -8.33301 98 -25s29 -42.334 29 -77.001c0 -5.33301 -0.166992 -11.5 -0.5 -18.5s-0.833008 -13.5 -1.5 -19.5v-7c0 -1.33301 -0.166992 -2.66602 -0.5 -3.99902
s-0.5 -2.66602 -0.5 -3.99902l-36 -137c-10 -46 -27 -80.667 -51 -104s-59.667 -35 -107 -35h-35z" />
    <glyph glyph-name=".notdef.068" unicode="&#x1ef8;" horiz-adv-x="1264" 
d="M475 0l121 571l-277 815h326l170 -546l402 546h311l-621 -815l-121 -571h-311zM1319 1596c-30.667 -30.667 -66.3301 -52.168 -106.997 -64.501s-77.334 -18.5 -110.001 -18.5c-36.667 0 -69.667 6 -99 18s-56.833 25.5 -82.5 40.5s-50.834 28.5 -75.501 40.5
s-50.667 18 -78 18c-36 0 -74.167 -6.83301 -114.5 -20.5s-79.5 -38.167 -117.5 -73.5l34 214c32.667 30.667 69.167 52.334 109.5 65.001s77.166 19 110.499 19c30.667 0 60.334 -6.33301 89.001 -19s56.5 -26 83.5 -40l80 -40.5c26.333 -13 52.833 -19.5 79.5 -19.5
c40.667 0 79.667 6.66699 117 20s76.666 38 117.999 74z" />
    <glyph glyph-name=".notdef.002" unicode="&#x1ef9;" horiz-adv-x="1249" 
d="M31 -434l52.9971 247.998h688c23.333 0 39.5 4 48.5 12s16.167 23.667 21.5 47l28 127h-589c-57.333 0 -98.666 9.83301 -123.999 29.5s-38 50.834 -38 93.501c0 19.333 3.33301 46 10 80l176 833h287l-158 -743c-1.33301 -5.33301 -2.33301 -10.166 -3 -14.499
s-1 -8.5 -1 -12.5c0 -22 16.333 -33 49 -33h441l170 803h288l-270 -1267c-15.333 -70 -40.666 -121.333 -75.999 -154s-90.666 -49 -165.999 -49h-835zM1260 1249c-30.667 -30.667 -66.3301 -52.168 -106.997 -64.501s-77.334 -18.5 -110.001 -18.5
c-36.667 0 -69.667 6 -99 18s-56.833 25.5 -82.5 40.5s-50.834 28.5 -75.501 40.5s-50.667 18 -78 18c-36 0 -74.167 -6.83301 -114.5 -20.5s-79.5 -38.167 -117.5 -73.5l34 214c32.667 30.667 69.167 52.334 109.5 65.001s77.166 19 110.499 19
c30.667 0 60.334 -6.33301 89.001 -19s56.5 -26 83.5 -40l80 -40.5c26.333 -13 52.833 -19.5 79.5 -19.5c40.667 0 79.667 6.66699 117 20s76.666 38 117.999 74z" />
    <glyph glyph-name="quoteleft" unicode="&#x2018;" horiz-adv-x="530" 
d="M438 961l-12 509h260l-18 -509h-230z" />
    <glyph glyph-name="quoteright" unicode="&#x2019;" horiz-adv-x="530" 
d="M266 961l197 509h262l-229 -509h-230z" />
    <glyph glyph-name="quotedblleft" unicode="&#x201c;" horiz-adv-x="1061" 
d="M438 961l-12 509h260l-18 -509h-230zM969 961l-13 509h261l-19 -509h-229z" />
    <glyph glyph-name="quotedblright" unicode="&#x201d;" horiz-adv-x="1061" 
d="M266 961l197 509h262l-229 -509h-230zM797 961l196 509h262l-229 -509h-229z" />
    <glyph glyph-name="ellipsis" unicode="&#x2026;" horiz-adv-x="2447" 
d="M115 0l65 309h262l-65 -309h-262zM1094 0l65 309h262l-65 -309h-262zM2073 0l65 309h262l-65 -309h-262z" />
    <glyph glyph-name="Euro" unicode="&#x20ac;" horiz-adv-x="1192" 
d="M362 0c-69.333 0 -119.002 12.002 -149.002 36.002s-45 62 -45 114c0 25.333 4 56 12 92l58 270h-91l52 133h65l25 113h-90l53 133h65l54 254c17.333 82 46.833 142.667 88.5 182s106.834 59 195.501 59h754l-139 -266h-541c-27.333 0 -46.166 -5.5 -56.499 -16.5
s-18.833 -29.833 -25.5 -56.5l-33 -156h512l-69 -133h-471l-25 -113h434l-69 -133h-391l-37 -170c-2.66699 -6.66699 -4 -12.834 -4 -18.501v-14.5c0 -14.667 4 -24.834 12 -30.501s22.333 -8.5 43 -8.5h604l-57 -270h-734z" />
    <glyph glyph-name="trademark" unicode="&#x2122;" horiz-adv-x="1591" 
d="M377 659l119 562h-172l34 165h531l-35 -165h-168l-119 -562h-190zM1438 659l80 377l-246 -377h-107l-84 373l-80 -373h-165l153 727h191l96 -464l289 464h194l-153 -727h-168z" />
    <glyph glyph-name="nonmarkingreturn" horiz-adv-x="571" 
 />
    <glyph glyph-name="ugrave" horiz-adv-x="582" 
 />
    <glyph glyph-name="uacute" horiz-adv-x="580" 
 />
    <glyph glyph-name="yacute" horiz-adv-x="629" 
 />
  </font>
</defs>
</svg>
